Талли / Tully (Джейсон Рейтмен) [2018, драма, комедия, BDRip 1080p от селезень | Лицензия]

Ответить на тему
Статистика раздачи [Обновить пиров]
Размер:  9,62 GB   |    Зарегистрирован:  6 месяцев   |    .torrent скачан:  9 раз
Сидов:  133  [  0 KB/s  ]   Личеров:  1  [  0 KB/s  ]   Подробная статистика пиров
 
   
 
 
Автор Сообщение

Skorp10n ®

Оффлайн

 Активный раздающий 1 Активный раздающий 2
 Активный релизер 1000 Активный релизер 1500 Активный релизер 2000 Активный релизер 250 Активный релизер 3000 Активный релизер 500 Активный релизер 5000 Активный релизер Фильмов (1000) Активный релизер Фильмов (300) Активный релизер Фильмов (600) Активный Форумчанин 1 Активный Форумчанин 2 Активный Форумчанин 3 Активный Форумчанин 4 Друг трекера Карма 1000 Карма 1500 Карма 3000 Карма 500 Меценат Ни дня без новостей Орденосец 1 степени Орденосец 2 степени Орденосец 3 степени Почетный орденосец Почетный репортер С Новым 2016 Годом! С Новым 2017 Годом! С Новым 2018 Годом! С Новым 2019 Годом! Супер Мега Контер Квейк ТОП-10

Пол: Мужской

Стаж: 3 года 11 месяцев

Наличие запрета:

Сообщений: 10847

Откуда: Free-Tor.com

Отдача: не определено

Загрузка: не определено

Нажми

Создавать темы 21-Июл-2018 15:39

[Цитировать]

Информация о фильме- Название: Талли
Оригинальное название: Tully
Год выхода: 2018
Жанр: Драма, комедия
Режиссер: Джейсон Рейтмен
В ролях: Маккензи Дэвис, Шарлиз Терон, Марк Дюпласс, Рон Ливингстон, Эмили Хейн, Илэйн Тан, Кристал Лоннеберг, Эльфина Люк, Марселин Хьюго, Майкл Патрик Лэйн- -О фильме: Что подарить многодетной матери на рождение третьего ребенка? Тонну памперсов, беруши или блок релаксантов? А что, если подарить ей... няньку? Если мамаше удастся немного потерпеть причуды подарочной няньки, она поймет, какое счастье привалило и ей, и детям! Если, конечно, удастся.-Страна: США
Студия: Bron Studios, Right Way Productions, Denver and Delilah Productions
Продолжительность: 01:35:36
Перевод: Дублированный | Лицензия R5-Качество: BDRip 1080p
Видео: MPEG-4 AVC, 1920x1038, 12.4 Мbit/s, 23.976 fps
Звук:
Аудио #01: 48 kHz, AC3, 5.1, 448 Kbps | Дублированный | RUS |
Аудио #02: 48 kHz, DTS, 5.1, 1510 Kbps | Оригинал | ENG |
Субтитры: Русские (full), английские-

Скриншоты

--
-

MI

-General
Unique ID : 151697967258808550745255989087220921921 (0x721FF73C59FE64BD365EE88E17F1F641)
Complete name : D:Video111Tully.2018.BDRip.1080p.seleZen.mkv
Format : Matroska
Format version : Version 4
File size : 9.62 GiB
Duration : 1 h 35 min
Overall bit rate : 14.4 Mb/s
Movie name : Tully 2018 from селезень
Encoded date : UTC 2019-01-13 12:33:00
Writing application : mkvmerge v29.0.0 ('Like It Or Not') 64-bit
Writing library : libebml v1.3.6 + libmatroska v1.4.9
Video
ID : 1
Format : AVC
Format/Info : Advanced Video Codec
Format profile : [email protected]
Format settings : CABAC / 4 Ref Frames
Format settings, CABAC : Yes
Format settings, ReFrames : 4 frames
Codec ID : V_MPEG4/ISO/AVC
Duration : 1 h 35 min
Bit rate : 12.4 Mb/s
Width : 1 920 pixels
Height : 1 038 pixels
Display aspect ratio : 1.85:1
Frame rate mode : Constant
Frame rate : 23.976 (24000/1001) FPS
Color space : YUV
Chroma subsampling : 4:2:0
Bit depth : 8 bits
Scan type : Progressive
Bits/(Pixel*Frame) : 0.260
Stream size : 8.31 GiB (86%)
Writing library : x264 core 155 r2867+74 66b5600 t_mod_Custom_2 [[email protected] X86_64]
Encoding settings : cabac=1 / ref=4 / deblock=1:-3:-3 / analyse=0x3:0x113 / me=umh / subme=10 / psy=1 / fade_compensate=0.00 / psy_rd=0.90:0.10 / mixed_ref=1 / me_range=48 / chroma_me=1 / trellis=2 / 8x8dct=1 / cqm=0 / deadzone=21,11 / fast_pskip=0 / chroma_qp_offset=-2 / threads=18 / lookahead_threads=3 / sliced_threads=0 / nr=0 / decimate=1 / interlaced=0 / bluray_compat=0 / constrained_intra=0 / fgo=0 / bframes=8 / b_pyramid=2 / b_adapt=2 / b_bias=0 / direct=3 / weightb=1 / open_gop=0 / weightp=2 / keyint=250 / keyint_min=23 / scenecut=40 / intra_refresh=0 / rc_lookahead=40 / rc=crf / mbtree=0 / crf=19.0000 / qcomp=0.70 / qpmin=0:0:0 / qpmax=69:69:69 / qpstep=4 / vbv_maxrate=35000 / vbv_bufsize=35000 / crf_max=0.0 / nal_hrd=none / filler=0 / ip_ratio=1.40 / pb_ratio=1.30 / aq=3:0.90 / aq-sensitivity=10.00 / aq-factor=1.00:1.00:1.00 / aq2=0 / aq3=2:[0.50:0.50]:[0.50:0.50]:[0.50:0.50]:[0.50:0.50] / aq3-sensitivity=10.00 / aq3-factor=[1.00:1.00]:[1.00:1.00]:[1.00:1.00] / aq3-boundary=192:64:24
Language : English
Default : Yes
Forced : No
Color range : Limited
Matrix coefficients : BT.709
Audio #1
ID : 2
Format : AC-3
Format/Info : Audio Coding 3
Commercial name : Dolby Digital
Codec ID : A_AC3
Duration : 1 h 35 min
Bit rate mode : Constant
Bit rate : 448 kb/s
Channel(s) : 6 channels
Channel layout : L R C LFE Ls Rs
Sampling rate : 48.0 kHz
Frame rate : 31.250 FPS (1536 SPF)
Bit depth : 16 bits
Compression mode : Lossy
Stream size : 306 MiB (3%)
Title : R5
Language : Russian
Service kind : Complete Main
Default : Yes
Forced : Yes
Audio #2
ID : 3
Format : DTS
Format/Info : Digital Theater Systems
Codec ID : A_DTS
Duration : 1 h 35 min
Bit rate mode : Constant
Bit rate : 1 509 kb/s
Channel(s) : 6 channels
Channel layout : C L R Ls Rs LFE
Sampling rate : 48.0 kHz
Frame rate : 93.750 FPS (512 SPF)
Bit depth : 24 bits
Compression mode : Lossy
Stream size : 1.01 GiB (10%)
Title : Original
Language : English
Default : No
Forced : No
Text #1
ID : 4
Format : UTF-8
Codec ID : S_TEXT/UTF8
Codec ID/Info : UTF-8 Plain Text
Duration : 1 h 28 min
Bit rate : 98 b/s
Count of elements : 1477
Stream size : 63.9 KiB (0%)
Title : Full
Language : Russian
Default : No
Forced : No
Text #2
ID : 5
Format : UTF-8
Codec ID : S_TEXT/UTF8
Codec ID/Info : UTF-8 Plain Text
Duration : 1 h 33 min
Bit rate : 69 b/s
Count of elements : 1630
Stream size : 47.3 KiB (0%)
Language : English
Default : No
Forced : No
Menu
00:00:00.000 : en:00:00:00.000
00:04:18.216 : en:00:04:18.216
00:09:53.676 : en:00:09:53.676
00:15:01.943 : en:00:15:01.943
00:19:10.983 : en:00:19:10.983
00:25:16.932 : en:00:25:16.932
00:30:19.401 : en:00:30:19.401
00:36:26.267 : en:00:36:26.267
00:41:31.155 : en:00:41:31.155
00:45:39.820 : en:00:45:39.820
00:49:44.607 : en:00:49:44.607
00:54:46.700 : en:00:54:46.700
01:00:17.030 : en:01:00:17.030
01:02:08.058 : en:01:02:08.058
01:05:24.671 : en:01:05:24.671
01:10:40.486 : en:01:10:40.486
01:15:41.454 : en:01:15:41.454
01:20:56.060 : en:01:20:56.060
01:24:15.592 : en:01:24:15.592
01:30:29.257 : en:01:30:29.257-
-Релиз от: -
[free-tor.info].t16270.torrent 
Торрент: Зарегистрирован [ 2019-01-15 14:04 ] · 381BE6A203DBC5F1DCB80E2F0A1242594B20BC67

Скачать .torrent

Скачать .torrent

14 KB

Статус: проверено
.torrent скачан: 9 раз
Размер: 9,62 GB
Правила
Volodymyr(23-Июл-18)
Похожие темы

[Профиль] [ЛС]
Показать сообщения:    
Ответить на тему

Текущее время: 16-Июл 03:55

Часовой пояс: UTC + 4



Вы не можете начинать темы
Вы не можете отвечать на сообщения
Вы не можете редактировать свои сообщения
Вы не можете удалять свои сообщения
Вы не можете голосовать в опросах
Вы не можете прикреплять файлы к сообщениям
Вы можете скачивать файлы
Анализ веб сайтов Яндекс.Метрика