Слендермен / Slender Man (Сильвен Уайт) [2018, ужасы, триллер, детектив, BDRip 720p | iTunes]

Ответить на тему
Статистика раздачи [Обновить пиров]
Размер:  3,3 GB   |    Зарегистрирован:  8 месяцев 11 дней   |    .torrent скачан:  7 раз
Сидов:  1451  [  0 KB/s  ]   Личеров:  83  [  0 KB/s  ]   Подробная статистика пиров
 
   
 
 
Автор Сообщение

Skorp10n ®

Оффлайн

 Активный раздающий 1 Активный раздающий 2
 Активный релизер 1000 Активный релизер 1500 Активный релизер 2000 Активный релизер 250 Активный релизер 3000 Активный релизер 500 Активный релизер 5000 Активный релизер Фильмов (1000) Активный релизер Фильмов (300) Активный релизер Фильмов (600) Активный Форумчанин 1 Активный Форумчанин 2 Активный Форумчанин 3 Активный Форумчанин 4 Друг трекера Карма 1000 Карма 1500 Карма 3000 Карма 500 Меценат Ни дня без новостей Орденосец 1 степени Орденосец 2 степени Орденосец 3 степени Почетный орденосец Почетный репортер С Новым 2016 Годом! С Новым 2017 Годом! С Новым 2018 Годом! С Новым 2019 Годом! Супер Мега Контер Квейк ТОП-10

Пол: Мужской

Стаж: 3 года 11 месяцев

Наличие запрета:

Сообщений: 10847

Откуда: Free-Tor.com

Отдача: не определено

Загрузка: не определено

Нажми

Создавать темы 05-Ноя-2018 20:03

[Цитировать]

Информация о фильме- Название: Слендермен
Оригинальное название: Slender Man
Год выхода: 2018
Жанр: ужасы, триллер, детектив
Режиссер: Сильвен Уайт
В ролях: Джои Кинг, Джулия Голден Теллес, Жасмин Сабино, Анналиса Бассо, Алекс Фицалан, Тейлор Ричардсон, Хавьер Ботет, Джессика Бланк, Майкл Рейли Бурк, Кевин Чэпмен-Описание: Слендермен — это худощавая безликая фигура в похоронном костюме. Ходят слухи, что если его вызвать, то он заберёт тебя в другой мир. Четыре подружки-старшеклассницы от нечего делать смотрят в интернете видео о том, как вызвать Слендермена, и через неделю одна из них пропадает без следа.- -Страна: США
Продолжительность: 01:33:10
Перевод: дублированный
Оригинальная аудиодорожка: english-Файл-Качество: BDRip 720p
Видео: x264, 1280x534 (2.40:1), 23,976 fps, 4042 kbps
Аудио 1: 48 kHz, AC3 Dolby Digital, 6 ch, 384 kbps | Russian
Аудио 2: 48 kHz, AC3 Dolby Digital, 6 ch, 640 kbps | Eglish
Субтитры: russian (full), english (full, SDH)-

Скриншоты

--
-

MediaInfo

-Общее
Уникальный идентификатор : 30341862901382944055470330569868368551 (0x16D3A156F39DEDE02B0C214F7A7EDAA7)
Полное имя : Slender.Man.2018.BDRip.720p-ylnian.mkv
Формат : Matroska
Версия формата : Version 4
Размер файла : 3,30 Гбайт
Продолжительность : 1 ч. 33 м.
Общий поток : 5069 Кбит/сек
Название фильма : Slender.Man.2018.BDRip.720p-ylnian
Дата кодирования : UTC 2018-11-04 08:07:27
Программа кодирования : mkvmerge v28.2.0 ('The Awakening') 64-bit
Библиотека кодирования : libebml v1.3.6 + libmatroska v1.4.9
Видео
Идентификатор : 1
Формат : AVC
Формат/Информация : Advanced Video Codec
Профиль формата : [email protected]
Настройки формата : CABAC / 12 Ref Frames
Параметр CABAC формата : Да
Параметр RefFrames формата : 12 кадров
Идентификатор кодека : V_MPEG4/ISO/AVC
Продолжительность : 1 ч. 33 м.
Битрейт : 4042 Кбит/сек
Ширина : 1280 пикселей
Высота : 534 пикселя
Соотношение сторон : 2,40:1
Режим частоты кадров : Постоянный
Частота кадров : 23,976 (24000/1001) кадра/сек
Цветовое пространство : YUV
Субдискретизация насыщенности : 4:2:0
Битовая глубина : 8 бит
Тип развёртки : Прогрессивная
Бит/(Пиксели*Кадры) : 0.247
Размер потока : 2,63 Гбайт (80%)
Заголовок : Slender.Man.2018.720p.BluRay.DD5.1.x264-Ingui
Библиотека кодирования : x264 core 157 r2867+103 0d6443f t_mod_Custom_2 [[email protected] X86_64]
Настройки программы : cabac=1 / ref=12 / deblock=1:-3:-3 / analyse=0x3:0x133 / me=umh / subme=10 / psy=1 / fade_compensate=0.00 / psy_rd=1.10:0.00 / mixed_ref=1 / me_range=24 / chroma_me=1 / trellis=2 / 8x8dct=1 / cqm=0 / deadzone=21,11 / fast_pskip=0 / chroma_qp_offset=-2 / threads=12 / lookahead_threads=2 / sliced_threads=0 / nr=0 / decimate=0 / interlaced=0 / bluray_compat=0 / constrained_intra=0 / fgo=0 / bframes=9 / b_pyramid=2 / b_adapt=2 / b_bias=0 / direct=3 / weightb=1 / open_gop=0 / weightp=2 / keyint=250 / keyint_min=23 / scenecut=40 / intra_refresh=0 / rc_lookahead=60 / rc=crf / mbtree=0 / crf=16.0000 / qcomp=0.60 / qpmin=0:0:0 / qpmax=69:69:69 / qpstep=4 / vbv_maxrate=62500 / vbv_bufsize=78125 / crf_max=0.0 / nal_hrd=none / filler=0 / ip_ratio=1.30 / pb_ratio=1.20 / aq=3:0.80 / aq-sensitivity=10.00 / aq-factor=1.00:1.00:1.00 / aq2=0 / aq3=0
Язык : English
Default : Да
Forced : Да
Цветовой диапазон : Limited
Коэффициенты матрицы : BT.709
Аудио #1
Идентификатор : 2
Формат : AC-3
Формат/Информация : Audio Coding 3
Коммерческое название : Dolby Digital
Идентификатор кодека : A_AC3
Продолжительность : 1 ч. 33 м.
Вид битрейта : Постоянный
Битрейт : 384 Кбит/сек
Каналы : 6 каналов
Channel layout : L R C LFE Ls Rs
Частота : 48,0 КГц
Частота кадров : 31,250 кадров/сек (1536 SPF)
Битовая глубина : 16 бит
Метод сжатия : С потерями
Размер потока : 256 Мбайт (8%)
Заголовок : DUB - iTunes
Язык : Russian
ServiceKind : Complete Main
Default : Да
Forced : Да
Аудио #2
Идентификатор : 3
Формат : AC-3
Формат/Информация : Audio Coding 3
Коммерческое название : Dolby Digital
Идентификатор кодека : A_AC3
Продолжительность : 1 ч. 33 м.
Вид битрейта : Постоянный
Битрейт : 640 Кбит/сек
Каналы : 6 каналов
Channel layout : L R C LFE Ls Rs
Частота : 48,0 КГц
Частота кадров : 31,250 кадров/сек (1536 SPF)
Битовая глубина : 16 бит
Метод сжатия : С потерями
Размер потока : 427 Мбайт (13%)
Язык : English
ServiceKind : Complete Main
Default : Нет
Forced : Нет
Текст #1
Идентификатор : 4
Формат : UTF-8
Идентификатор кодека : S_TEXT/UTF8
Идентификатор кодека/Информация : UTF-8 Plain Text
Продолжительность : 1 ч. 26 м.
Битрейт : 61 бит/сек
ElementCount : 710
Размер потока : 39,0 Кбайт (0%)
Язык : Russian
Default : Нет
Forced : Нет
Текст #2
Идентификатор : 5
Формат : UTF-8
Идентификатор кодека : S_TEXT/UTF8
Идентификатор кодека/Информация : UTF-8 Plain Text
Продолжительность : 1 ч. 26 м.
Битрейт : 32 бит/сек
ElementCount : 658
Размер потока : 20,3 Кбайт (0%)
Язык : English
Default : Нет
Forced : Нет
Текст #3
Идентификатор : 6
Формат : UTF-8
Идентификатор кодека : S_TEXT/UTF8
Идентификатор кодека/Информация : UTF-8 Plain Text
Продолжительность : 1 ч. 26 м.
Битрейт : 37 бит/сек
ElementCount : 820
Размер потока : 23,6 Кбайт (0%)
Заголовок : SDH
Язык : English
Default : Нет
Forced : Нет
Меню
00:00:00.000 : :00:00:00.000
00:04:42.782 : :00:04:42.782
00:12:02.263 : :00:12:02.263
00:15:20.920 : :00:15:20.920
00:22:07.368 : :00:22:07.368
00:28:44.431 : :00:28:44.431
00:32:14.599 : :00:32:14.599
00:40:31.763 : :00:40:31.763
00:45:50.790 : :00:45:50.790
00:52:40.199 : :00:52:40.199
00:55:34.498 : :00:55:34.498
01:00:42.681 : :01:00:42.681
01:05:19.624 : :01:05:19.624
01:08:53.963 : :01:08:53.963
01:15:11.340 : :01:15:11.340
01:21:12.743 : :01:21:12.743-
-
[free-tor.info].t17567.torrent 
Торрент: Зарегистрирован [ 2018-11-05 20:03 ] · E831DA52244023187CC2D8921205C36608533338

Скачать .torrent

Скачать .torrent

17 KB

Статус: проверено
.torrent скачан: 7 раз
Размер: 3,3 GB
Правила
Похожие темы

[Профиль] [ЛС]
Показать сообщения:    
Ответить на тему

Текущее время: 17-Июл 02:25

Часовой пояс: UTC + 4



Вы не можете начинать темы
Вы не можете отвечать на сообщения
Вы не можете редактировать свои сообщения
Вы не можете удалять свои сообщения
Вы не можете голосовать в опросах
Вы не можете прикреплять файлы к сообщениям
Вы можете скачивать файлы
Анализ веб сайтов Яндекс.Метрика