Кислота (Александр Горчилин) [2018, драма, WEB-DL 1080p | iTunes]

Ответить на тему
Статистика раздачи [Обновить пиров]
Размер:  3,68 GB   |    Зарегистрирован:  7 месяцев 7 дней   |    .torrent скачан:  13 раз
Сидов:  1386  [  0 KB/s  ]   Личеров:  46  [  0 KB/s  ]   Подробная статистика пиров
 
   
 
 
Автор Сообщение

Skorp10n ®

Оффлайн

 Активный раздающий 1 Активный раздающий 2
 Активный релизер 1000 Активный релизер 1500 Активный релизер 2000 Активный релизер 250 Активный релизер 3000 Активный релизер 500 Активный релизер 5000 Активный релизер Фильмов (1000) Активный релизер Фильмов (300) Активный релизер Фильмов (600) Активный Форумчанин 1 Активный Форумчанин 2 Активный Форумчанин 3 Активный Форумчанин 4 Друг трекера Карма 1000 Карма 1500 Карма 3000 Карма 500 Меценат Ни дня без новостей Орденосец 1 степени Орденосец 2 степени Орденосец 3 степени Почетный орденосец Почетный репортер С Новым 2016 Годом! С Новым 2017 Годом! С Новым 2018 Годом! С Новым 2019 Годом! Супер Мега Контер Квейк ТОП-10

Пол: Мужской

Стаж: 3 года 10 месяцев

Наличие запрета:

Сообщений: 10760

Откуда: Free-Tor.com

Отдача: не определено

Загрузка: не определено

Нажми

Создавать темы 09-Ноя-2018 10:02

[Цитировать]

Информация о фильме- Название: Кислота
Год выпуска: 2018
Жанр: Драма
Режиссёр: Александр Горчилин
В ролях: Филипп Авдеев, Александр Кузнецов, Арина Шевцова, Савва Савельев, Александра Ребенок, Роза Хаируллина, Дмитрий Куличков, Елена Морозова, Алексей Агранович, Софья Синицына-Описание:-Саша и Петя живут безбашенной жизнью музыкантов современной техно-Москвы: громкие вечеринки, взлеты и падения, колесо нестабильных отношений с окружающими и собой. Они — поколение двадцатилетних, которые часто слышали слова «любовь», «семья» и «возможности», но хорошо усвоили лишь чувство разъедающего изнутри одиночества. Но вдруг в их жизни происходит событие, которое заставляет обоих честно взглянуть на себя.- -Страна: Россия
Студия: Кинокомпания «Слон», TRUEMEN Pictures
Продолжительность: 01:33:36
Язык: Русский-Файл-Формат: MKV
Качество: WEB-DL 1080p
Видео: 1920x804 (2.40:1), 25 fps, MPEG-4 AVC ~ 5238 kbps avg, 0.136 bit/pixel
Звук: AC3, 48 kHz, 6 ch, ~384.00 kbps avg | русский | iTunes-Субтитры: Отсутствуют-

Инфо-файл

-Общее
Уникальный идентификатор : 66059773396707445212133446605909696336 (0x31B2A64A3F2AAA8C0F4C2AF183AA9F50)
Полное имя : KISLOTA (2018) WEB-DL 1080p).mkv
Формат : Matroska
Версия формата : Version 4 / Version 2
Размер файла : 3,68 Гбайт
Продолжительность : 1 ч. 33 м.
Общий поток : 5623 Кбит/сек
Название фильма : Кислота (2018)
Дата кодирования : UTC 2018-11-08 19:11:11
Программа кодирования : mkvmerge v27.0.0 ('Metropolis') 64-bit
Библиотека кодирования : libebml v1.3.6 + libmatroska v1.4.9
Видео
Идентификатор : 1
Формат : AVC
Формат/Информация : Advanced Video Codec
Профиль формата : [email protected]
Настройки формата : CABAC / 4 Ref Frames
Параметр CABAC формата : Да
Параметр RefFrames формата : 4 кадра
Идентификатор кодека : V_MPEG4/ISO/AVC
Продолжительность : 1 ч. 33 м.
Битрейт : 5238 Кбит/сек
Ширина : 1920 пикселей
Высота : 804 пикселя
Соотношение сторон : 2,40:1
Режим частоты кадров : Постоянный
Частота кадров : 25,000 кадров/сек
Цветовое пространство : YUV
Субдискретизация насыщенности : 4:2:0
Битовая глубина : 8 бит
Тип развёртки : Прогрессивная
Бит/(Пиксели*Кадры) : 0.136
Размер потока : 3,42 Гбайт (93%)
Заголовок : KISLOTA (2018) WEB-DL 1080p
Язык : Russian
Default : Да
Forced : Нет
Аудио
Идентификатор : 2
Формат : AC-3
Формат/Информация : Audio Coding 3
Идентификатор кодека : A_AC3
Продолжительность : 1 ч. 33 м.
Вид битрейта : Постоянный
Битрейт : 384 Кбит/сек
Каналы : 6 каналов
Расположение каналов : Front: L C R, Side: L R, LFE
Частота : 48,0 КГц
Частота кадров : 31,250 кадров/сек (1536 SPF)
Битовая глубина : 16 бит
Метод сжатия : С потерями
Размер потока : 257 Мбайт (7%)
Заголовок : iTunes | KISLOTA (2018) WEB-DL 1080p
Язык : Russian
Default : Да
Forced : Нет-
-

Скриншоты

--
-
[free-tor.info].t17634.torrent 
Торрент: Зарегистрирован [ 2018-11-09 10:02 ] · 218A392A239355DA94873420321E8DB641029556

Скачать .torrent

Скачать .torrent

19 KB

Статус: проверено
.torrent скачан: 13 раз
Размер: 3,68 GB
Правила
Похожие темы

[Профиль] [ЛС]
Показать сообщения:    
Ответить на тему

Текущее время: 16-Июн 12:51

Часовой пояс: UTC + 4



Вы не можете начинать темы
Вы не можете отвечать на сообщения
Вы не можете редактировать свои сообщения
Вы не можете удалять свои сообщения
Вы не можете голосовать в опросах
Вы не можете прикреплять файлы к сообщениям
Вы можете скачивать файлы
Анализ веб сайтов Яндекс.Метрика