Великий уравнитель 2 / The Equalizer 2 (Антуан Фукуа) [2018, боевик, триллер, криминал, BDRip 1080p от селезень | D, A | Лицензия]

Ответить на тему
Статистика раздачи [Обновить пиров]
Размер:  12,25 GB   |    Зарегистрирован:  6 месяцев   |    .torrent скачан:  12 раз
Сидов:  179  [  0 KB/s  ]   Личеров:  27  [  0 KB/s  ]   Подробная статистика пиров
 
   
 
 
Автор Сообщение

Skorp10n ®

Онлайн

 Активный раздающий 1 Активный раздающий 2
 Активный релизер 1000 Активный релизер 1500 Активный релизер 2000 Активный релизер 250 Активный релизер 3000 Активный релизер 500 Активный релизер 5000 Активный релизер Фильмов (1000) Активный релизер Фильмов (300) Активный релизер Фильмов (600) Активный Форумчанин 1 Активный Форумчанин 2 Активный Форумчанин 3 Активный Форумчанин 4 Друг трекера Карма 1000 Карма 1500 Карма 3000 Карма 500 Меценат Ни дня без новостей Орденосец 1 степени Орденосец 2 степени Орденосец 3 степени Почетный орденосец Почетный репортер С Новым 2016 Годом! С Новым 2017 Годом! С Новым 2018 Годом! С Новым 2019 Годом! Супер Мега Контер Квейк ТОП-10

Пол: Мужской

Стаж: 3 года 10 месяцев

Наличие запрета:

Сообщений: 10760

Откуда: Free-Tor.com

Отдача: не определено

Загрузка: не определено

Нажми

Создавать темы 12-Ноя-2018 17:18

[Цитировать]

Информация о фильме- Название: Великий уравнитель 2
Оригинальное название: The Equalizer 2
Год выхода: 2018
Жанр: Боевик, триллер, криминал
Режиссер: Антуан Фукуа
В ролях: Педро Паскаль, Дензел Вашингтон, Билл Пуллман, Мелисса Лео, Джонатан Скарф, Сакина Джэффри, Кэролайн Дэй, Орсон Бин, Хайди Гарроу, Эштон Сандерс- -О фильме: Продолжение истории Роберта Маккола, бывшего агента ЦРУ, который самостоятельно вершит правосудие.-Страна: США
Студия: Columbia Pictures, Escape Artists, Fuqua Films
Продолжительность: 02:00:57
Перевод(ы):
#1: Дублированный | Лицензия
#2: Авторский | Д. Есарев
-Качество: BDRip 1080p
Видео: MPEG-4 AVC, 1920x800, 10 Mbit/s, 23.976 fps
Звук:
Аудио #01: 48 kHz, AC3, 5.1, 640 Kbps | Дублированный (Лицензия) | RUS |
Аудио #02: 48 kHz, AC3, 5.1, 640 Kbps | Авторский (Д. Есарев) | RUS |
Аудио #03: 48 kHz, DTS, 5.1, 1510 Kbps | Авторский (Д. Есарев) | RUS |
Аудио #04: 48 kHz, AC3, 2.0, 192 Kbps | Дублированный (студія LeDoyen) | RUS |
Аудио #05: 48 kHz, DTS, 5.1, 1510 Kbps | Оригинал | ENG |
Субтитры: Русские (Forced, full), украинские (Forced, full), английские-

Скриншоты

--
-

MI

-General
Unique ID : 175173545310136004540156069683193328932 (0x83C9329862D3D93755F57BFC14623524)
Complete name : D:Video111The.Equalizer.2.2018.D.AVO.BDRip.1080p.seleZen.mkv
Format : Matroska
Format version : Version 4
File size : 12.2 GiB
Duration : 2 h 0 min
Overall bit rate : 14.5 Mb/s
Movie name : The Equalizer 2 (2018) from селезень
Encoded date : UTC 2018-12-14 21:21:13
Writing application : mkvmerge v29.0.0 ('Like It Or Not') 64-bit
Writing library : libebml v1.3.6 + libmatroska v1.4.9
Video
ID : 1
Format : AVC
Format/Info : Advanced Video Codec
Format profile : [email protected]
Format settings : CABAC / 5 Ref Frames
Format settings, CABAC : Yes
Format settings, ReFrames : 5 frames
Codec ID : V_MPEG4/ISO/AVC
Duration : 2 h 0 min
Bit rate : 10 000 kb/s
Width : 1 920 pixels
Height : 800 pixels
Display aspect ratio : 2.40:1
Frame rate mode : Constant
Frame rate : 23.976 (24000/1001) FPS
Color space : YUV
Chroma subsampling : 4:2:0
Bit depth : 8 bits
Scan type : Progressive
Bits/(Pixel*Frame) : 0.272
Stream size : 8.45 GiB (69%)
Title : selezen
Writing library : x264 core 148 r2705kMod 3f5ed56
Encoding settings : cabac=1 / ref=5 / deblock=1:-2:-2 / analyse=0x3:0x133 / me=umh / subme=10 / psy=1 / fade_compensate=0.00 / psy_rd=1.05:0.07 / mixed_ref=1 / me_range=32 / chroma_me=1 / trellis=2 / 8x8dct=1 / cqm=0 / deadzone=21,11 / fast_pskip=0 / chroma_qp_offset=-3 / threads=12 / lookahead_threads=2 / sliced_threads=0 / nr=0 / decimate=0 / interlaced=0 / bluray_compat=0 / constrained_intra=0 / fgo=0 / bframes=8 / b_pyramid=2 / b_adapt=2 / b_bias=0 / direct=3 / weightb=1 / open_gop=0 / weightp=2 / keyint=240 / keyint_min=23 / scenecut=40 / intra_refresh=0 / rc_lookahead=50 / rc=2pass / mbtree=0 / bitrate=10000 / ratetol=1.0 / qcomp=0.60 / qpmin=0 / qpmax=51 / qpstep=4 / cplxblur=20.0 / qblur=0.5 / vbv_maxrate=50000 / vbv_bufsize=62500 / nal_hrd=none / filler=0 / ip_ratio=1.40 / pb_ratio=1.30 / aq=3:0.80
Language : English
Default : Yes
Forced : No
Audio #1
ID : 2
Format : AC-3
Format/Info : Audio Coding 3
Commercial name : Dolby Digital
Codec ID : A_AC3
Duration : 2 h 0 min
Bit rate mode : Constant
Bit rate : 640 kb/s
Channel(s) : 6 channels
Channel layout : L R C LFE Ls Rs
Sampling rate : 48.0 kHz
Frame rate : 31.250 FPS (1536 SPF)
Bit depth : 16 bits
Compression mode : Lossy
Stream size : 554 MiB (4%)
Title : Dub [License]
Language : Russian
Service kind : Complete Main
Default : Yes
Forced : Yes
Audio #2
ID : 3
Format : AC-3
Format/Info : Audio Coding 3
Commercial name : Dolby Digital
Codec ID : A_AC3
Duration : 2 h 0 min
Bit rate mode : Constant
Bit rate : 640 kb/s
Channel(s) : 6 channels
Channel layout : L R C LFE Ls Rs
Sampling rate : 48.0 kHz
Frame rate : 31.250 FPS (1536 SPF)
Bit depth : 16 bits
Compression mode : Lossy
Stream size : 554 MiB (4%)
Title : AVO [Yesarev]
Language : Russian
Service kind : Complete Main
Default : No
Forced : No
Audio #3
ID : 4
Format : DTS
Format/Info : Digital Theater Systems
Codec ID : A_DTS
Duration : 2 h 0 min
Bit rate mode : Constant
Bit rate : 1 509 kb/s
Channel(s) : 6 channels
Channel layout : C L R Ls Rs LFE
Sampling rate : 48.0 kHz
Frame rate : 93.750 FPS (512 SPF)
Bit depth : 16 bits
Compression mode : Lossy
Stream size : 1.27 GiB (10%)
Title : AVO [Yesarev]
Language : Russian
Default : No
Forced : No
Audio #4
ID : 5
Format : AC-3
Format/Info : Audio Coding 3
Commercial name : Dolby Digital
Codec ID : A_AC3
Duration : 2 h 0 min
Bit rate mode : Constant
Bit rate : 192 kb/s
Channel(s) : 2 channels
Channel layout : L R
Sampling rate : 48.0 kHz
Frame rate : 31.250 FPS (1536 SPF)
Bit depth : 16 bits
Compression mode : Lossy
Stream size : 166 MiB (1%)
Title : Dub [Ledoyen]
Language : Ukrainian
Service kind : Complete Main
Default : No
Forced : No
Audio #5
ID : 6
Format : DTS
Format/Info : Digital Theater Systems
Codec ID : A_DTS
Duration : 2 h 0 min
Bit rate mode : Constant
Bit rate : 1 509 kb/s
Channel(s) : 6 channels
Channel layout : C L R Ls Rs LFE
Sampling rate : 48.0 kHz
Frame rate : 93.750 FPS (512 SPF)
Bit depth : 16 bits
Compression mode : Lossy
Stream size : 1.27 GiB (10%)
Title : Original
Language : English
Default : No
Forced : No
Text #1
ID : 7
Format : UTF-8
Codec ID : S_TEXT/UTF8
Codec ID/Info : UTF-8 Plain Text
Duration : 1 h 59 min
Bit rate : 1 b/s
Count of elements : 43
Stream size : 1.60 KiB (0%)
Title : Forced
Language : Russian
Default : Yes
Forced : Yes
Text #2
ID : 8
Format : UTF-8
Codec ID : S_TEXT/UTF8
Codec ID/Info : UTF-8 Plain Text
Duration : 1 h 59 min
Bit rate : 57 b/s
Count of elements : 1062
Stream size : 50.3 KiB (0%)
Title : Full
Language : Russian
Default : No
Forced : No
Text #3
ID : 9
Format : UTF-8
Codec ID : S_TEXT/UTF8
Codec ID/Info : UTF-8 Plain Text
Duration : 1 h 54 min
Bit rate : 1 b/s
Count of elements : 29
Stream size : 979 Bytes (0%)
Title : Forced
Language : Ukrainian
Default : No
Forced : No
Text #4
ID : 10
Format : UTF-8
Codec ID : S_TEXT/UTF8
Codec ID/Info : UTF-8 Plain Text
Duration : 1 h 59 min
Bit rate : 55 b/s
Count of elements : 1058
Stream size : 48.7 KiB (0%)
Title : Full
Language : Ukrainian
Default : No
Forced : No
Text #5
ID : 11
Format : UTF-8
Codec ID : S_TEXT/UTF8
Codec ID/Info : UTF-8 Plain Text
Duration : 1 h 52 min
Bit rate : 40 b/s
Count of elements : 1283
Stream size : 33.6 KiB (0%)
Title : Full
Language : English
Default : No
Forced : No
Menu
00:00:00.000 : en:Chapter 1
00:01:31.758 : en:Chapter 2
00:01:58.577 : en:Chapter 3
00:04:54.127 : en:Chapter 4
00:05:33.041 : en:Chapter 5
00:05:51.893 : en:Chapter 6
00:06:24.092 : en:Chapter 7
00:06:55.498 : en:Chapter 8
00:07:06.635 : en:Chapter 9
00:07:35.622 : en:Chapter 10
00:07:53.765 : en:Chapter 11
00:08:09.781 : en:Chapter 12
00:08:21.793 : en:Chapter 13
00:08:38.935 : en:Chapter 14
00:09:08.840 : en:Chapter 15
00:09:44.375 : en:Chapter 16
00:11:32.233 : en:Chapter 17
00:11:41.075 : en:Chapter 18
00:12:05.725 : en:Chapter 19
00:13:03.783 : en:Chapter 20
00:15:24.674 : en:Chapter 21
00:15:58.291 : en:Chapter 22
00:16:19.186 : en:Chapter 23
00:16:54.347 : en:Chapter 24
00:17:58.327 : en:Chapter 25
00:19:33.547 : en:Chapter 26
00:20:02.993 : en:Chapter 27
00:20:55.963 : en:Chapter 28
00:23:04.633 : en:Chapter 29
00:23:50.179 : en:Chapter 30
00:23:59.688 : en:Chapter 31
00:24:13.994 : en:Chapter 32
00:24:20.709 : en:Chapter 33
00:25:47.588 : en:Chapter 34
00:28:22.617 : en:Chapter 35
00:28:39.426 : en:Chapter 36
00:31:49.908 : en:Chapter 37
00:32:04.589 : en:Chapter 38
00:32:13.640 : en:Chapter 39
00:34:11.174 : en:Chapter 40
00:35:14.571 : en:Chapter 41
00:36:09.834 : en:Chapter 42
01:31:39.244 : en:Chapter 43
01:32:20.660 : en:Chapter 44
01:32:41.014 : en:Chapter 45
01:33:19.969 : en:Chapter 46
01:34:56.524 : en:Chapter 47
01:41:27.832 : en:Chapter 48
01:41:36.382 : en:Chapter 49
01:42:24.722 : en:Chapter 50
01:46:59.496 : en:Chapter 51-
-Релиз от: -
[free-tor.info].t17693.torrent 
Торрент: Зарегистрирован [ 2018-12-16 11:49 ] · 93C7227B94E37D0DCAAFBE1CCC7B7609B4F791DA

Скачать .torrent

Скачать .torrent

17 KB

Статус: проверено
.torrent скачан: 12 раз
Размер: 12,25 GB
Правила
Тимур(12-Ноя-18)
Похожие темы

[Профиль] [ЛС]
Показать сообщения:    
Ответить на тему

Текущее время: 16-Июн 13:42

Часовой пояс: UTC + 4



Вы не можете начинать темы
Вы не можете отвечать на сообщения
Вы не можете редактировать свои сообщения
Вы не можете удалять свои сообщения
Вы не можете голосовать в опросах
Вы не можете прикреплять файлы к сообщениям
Вы можете скачивать файлы
Анализ веб сайтов Яндекс.Метрика