Ограбление века / Ограбление в Хаттон Гарден / The Hatton Garden Job (Ронни Томпсон) [2017, боевик, триллер, криминал, BDRemux 1080p | iTunes]

Ответить на тему
Статистика раздачи [Обновить пиров]
Размер:  17,1 GB   |    Зарегистрирован:  8 месяцев 2 дня   |    .torrent скачан:  4 раза
Сидов:  125  [  0 KB/s  ]   Личеров:  12  [  0 KB/s  ]   Подробная статистика пиров
 
   
 
 
Автор Сообщение

Skorp10n ®

Оффлайн

 Активный раздающий 1 Активный раздающий 2
 Активный релизер 1000 Активный релизер 1500 Активный релизер 2000 Активный релизер 250 Активный релизер 3000 Активный релизер 500 Активный релизер 5000 Активный релизер Фильмов (1000) Активный релизер Фильмов (300) Активный релизер Фильмов (600) Активный Форумчанин 1 Активный Форумчанин 2 Активный Форумчанин 3 Активный Форумчанин 4 Друг трекера Карма 1000 Карма 1500 Карма 3000 Карма 500 Меценат Ни дня без новостей Орденосец 1 степени Орденосец 2 степени Орденосец 3 степени Почетный орденосец Почетный репортер С Новым 2016 Годом! С Новым 2017 Годом! С Новым 2018 Годом! С Новым 2019 Годом! Супер Мега Контер Квейк ТОП-10

Пол: Мужской

Стаж: 3 года 11 месяцев

Наличие запрета:

Сообщений: 10847

Откуда: Free-Tor.com

Отдача: не определено

Загрузка: не определено

Нажми

Создавать темы 13-Ноя-2018 20:39

[Цитировать]

«Реальная история о самом дерзком ограблении»-Информация о фильме- Название: Ограбление века / Ограбление в Хаттон Гарден
Оригинальное название: The Hatton Garden Job
Год выхода: 2017
Жанр: Боевик, триллер, криминал
Режиссер: Ронни Томпсон
В ролях: Пол Мэттью Гуд, Джоэли Ричардсон, Стивен Мойер, Клайв Расселл, Уоррен Браун, Дэвид Колдер, Ларри Ламб, Фил Дэниелс, Джек Дулан, Джон Элфорд-О фильме:-Реальная история о самом масштабном ограблении в Великобритании. Налётчикам удалось вынести из надёжно защищённого банковского хранилища наличные и ценности на сумму в 200 миллионов фунтов. Воспользовавшись своим богатым жизненным опытом, преступники придумали отличный план, в котором рассчитали каждый шаг буквально по минутам. Это дерзкое ограбление наделало много шуму и сделало всех его участников «знаменитостями».- -Страна: Великобритания
Студия: Fiction Films
Продолжительность: 01:32:43
Перевод: Профессиональный (полное дублирование) | iTunes-Файл-Качество: BDRemux 1080p
Формат: MKV
Кодек: MPEG-4 AVC
Видео: 1920x1080 (16:9), 23,976 fps, MPEG-4 AVC ~ 24,0 Мbps avg, 0.483 bit/pixel
Аудио: AC3, 48 kHz, 6 ch, ~384.00 kbps avg | русский | iTunes
Аудио: DTS-HD MA, 48 kHz, 6 ch, ~2048.00 kbps avg | английский | Оригинал-Субтитры: Отсутствуют-Семпл-

Инфо-файл

-Общее
Уникальный идентификатор : 222205954173325431664985276816851496860 (0xA72B4F62798553AA66AB1ED2199C6F9C)
Полное имя : The.Hatton.Garden.Job.2017.REMUX.1080p.BluRay.AVC.DD5.1-KAZTORKA.mkv
Формат : Matroska
Версия формата : Version 4 / Version 2
Размер файла : 17,1 Гбайт
Продолжительность : 1 ч. 32 м.
Режим общего битрейта : Переменный
Общий поток : 26,4 Мбит/сек
Название фильма : The.Hatton.Garden.Job.2017.REMUX.1080p.BluRay.AVC.DD5.1-KAZTORKA
Дата кодирования : UTC 2018-11-12 22:39:58
Программа кодирования : mkvmerge v27.0.0 ('Metropolis') 64-bit
Библиотека кодирования : libebml v1.3.6 + libmatroska v1.4.9
Видео
Идентификатор : 1
Формат : AVC
Формат/Информация : Advanced Video Codec
Профиль формата : [email protected]
Настройки формата : CABAC / 3 Ref Frames
Параметр CABAC формата : Да
Параметр RefFrames формата : 3 кадра
Параметр GOP формата : M=3, N=12
Идентификатор кодека : V_MPEG4/ISO/AVC
Продолжительность : 1 ч. 32 м.
Вид битрейта : Переменный
Битрейт : 24,0 Мбит/сек
Максимальный битрейт : 35,0 Мбит/сек
Ширина : 1920 пикселей
Высота : 1080 пикселей
Соотношение сторон : 16:9
Режим частоты кадров : Постоянный
Частота кадров : 23,976 (24000/1001) кадра/сек
Стандарт вещания : NTSC
Цветовое пространство : YUV
Субдискретизация насыщенности : 4:2:0
Битовая глубина : 8 бит
Тип развёртки : Прогрессивная
Бит/(Пиксели*Кадры) : 0.483
Размер потока : 15,5 Гбайт (91%)
Заголовок : The.Hatton.Garden.Job.2017.REMUX.1080p.BluRay.AVC.DD5.1-KAZTORKA
Язык : English
Default : Да
Forced : Нет
Цветовой диапазон : Limited
Основные цвета : BT.709
Характеристики трансфера : BT.709
Коэффициенты матрицы : BT.709
Аудио #1
Идентификатор : 2
Формат : AC-3
Формат/Информация : Audio Coding 3
Идентификатор кодека : A_AC3
Продолжительность : 1 ч. 32 м.
Вид битрейта : Постоянный
Битрейт : 384 Кбит/сек
Каналы : 6 каналов
Расположение каналов : Front: L C R, Side: L R, LFE
Частота : 48,0 КГц
Частота кадров : 31,250 кадров/сек (1536 SPF)
Битовая глубина : 16 бит
Метод сжатия : С потерями
Размер потока : 255 Мбайт (1%)
Заголовок : iTunes | The.Hatton.Garden.Job.2017.REMUX.1080p.BluRay.AVC.DD5.1-KAZTORKA
Язык : Russian
Default : Да
Forced : Нет
Аудио #2
Идентификатор : 3
Формат : DTS
Формат/Информация : Digital Theater Systems
Профиль формата : MA / Core
Идентификатор кодека : A_DTS
Продолжительность : 1 ч. 32 м.
Вид битрейта : Переменный / Постоянный
Битрейт : 2048 Кбит/сек / 1509 Кбит/сек
Каналы : 6 каналов
Расположение каналов : Front: L C R, Side: L R, LFE
Частота : 48,0 КГц
Частота кадров : 93,750 кадра/сек (512 SPF)
Битовая глубина : 16 бит
Метод сжатия : Без потерь / Lossy
Размер потока : 1,31 Гбайт (8%)
Заголовок : English
Язык : English
Default : Нет
Forced : Нет
Меню
00:00:00.000 : en:00:00:00.000
00:10:21.162 : en:00:10:21.162
00:30:39.254 : en:00:30:39.254
00:49:35.723 : en:00:49:35.723
01:11:59.398 : en:01:11:59.398
01:30:03.148 : en:01:30:03.148-
-

Скриншоты

--
-
[free-tor.info].t17725.torrent 
Торрент: Зарегистрирован [ 2018-11-13 20:39 ] · 71DE343764339CF41041996D15F1AAC389892F98

Скачать .torrent

Скачать .torrent

44 KB

Статус: проверено
.torrent скачан: 4 раз
Размер: 17,1 GB
Правила
Похожие темы

[Профиль] [ЛС]
Показать сообщения:    
Ответить на тему

Текущее время: 16-Июл 04:10

Часовой пояс: UTC + 4



Вы не можете начинать темы
Вы не можете отвечать на сообщения
Вы не можете редактировать свои сообщения
Вы не можете удалять свои сообщения
Вы не можете голосовать в опросах
Вы не можете прикреплять файлы к сообщениям
Вы можете скачивать файлы
Анализ веб сайтов Яндекс.Метрика