Морской Пехотинец 6: Ближний Бой / The Marine 6: Close Quarters (Джеймс Нанн) [2018, боевик, драма, WEB-DL 1080p | iTunes]

Ответить на тему
Статистика раздачи [Обновить пиров]
Размер:  3,19 GB   |    Зарегистрирован:  8 месяцев 3 дня   |    .torrent скачан:  3 раза
Сидов:  5  [  0 KB/s  ]   Личеров:  8  [  0 KB/s  ]   Подробная статистика пиров
 
   
 
 
Автор Сообщение

Skorp10n ®

Оффлайн

 Активный раздающий 1 Активный раздающий 2
 Активный релизер 1000 Активный релизер 1500 Активный релизер 2000 Активный релизер 250 Активный релизер 3000 Активный релизер 500 Активный релизер 5000 Активный релизер Фильмов (1000) Активный релизер Фильмов (300) Активный релизер Фильмов (600) Активный Форумчанин 1 Активный Форумчанин 2 Активный Форумчанин 3 Активный Форумчанин 4 Друг трекера Карма 1000 Карма 1500 Карма 3000 Карма 500 Меценат Ни дня без новостей Орденосец 1 степени Орденосец 2 степени Орденосец 3 степени Почетный орденосец Почетный репортер С Новым 2016 Годом! С Новым 2017 Годом! С Новым 2018 Годом! С Новым 2019 Годом! Супер Мега Контер Квейк ТОП-10

Пол: Мужской

Стаж: 3 года 11 месяцев

Наличие запрета:

Сообщений: 10847

Откуда: Free-Tor.com

Отдача: не определено

Загрузка: не определено

Нажми

Создавать темы 13-Ноя-2018 20:43

[Цитировать]

«No one promised them a fair fight»-Информация о фильме- Название: Морской Пехотинец 6: Ближний Бой
Оригинальное название: The Marine 6: Close Quarters
Год выхода: 2018
Жанр: Боевик, драма
Режиссер: Джеймс Нанн
В ролях: Майк Мизанин, Шон Майклз, Ребекка Куинн, Луиза Конолли-Бёрнхем, Теренс Мэйнард, Тим Вудворд, Мартин Форд, Анна Деметриу, Майкл Хиггс, Дэниэл Адегбойега-О фильме:-Джейк Картер и его бывший коллега-морпех Люк Трэппер объединяют усилия, чтобы спасти похищенную девушку от банды международных преступников во главе с Мэдди Хейс.- -Страна: США
Студия: Fiction Films
Продолжительность: 01:25:23
Перевод: Профессиональный (многоголосый, закадровый) | iTunes-Файл-Качество: WEB-DL 1080p
Формат: MKV
Кодек: MPEG-4 AVC
Видео: 1916x1080 (2.40:1), 23,976 fps, MPEG-4 AVC ~ 4576 Kbps avg, 0.125 bit/pixel
Аудио: AC3, 48 kHz, 6 ch, ~384.00 kbps avg | русский | Профессиональный (многоголосый, закадровый) | iTunes
Аудио: AC3, 48 kHz, 6 ch, ~384.00 kbps avg | английский | Оригинал-Субтитры: Отсутствуют-

Инфо-файл

-Общее
Уникальный идентификатор : 213185495023568413027852522695005269206 (0xA06208695937C0C0C535C13C6E6B6CD6)
Полное имя : THE_MARINE_6 (2018) WEB-DL 1080p.mkv
Формат : Matroska
Версия формата : Version 4 / Version 2
Размер файла : 3,19 Гбайт
Продолжительность : 1 ч. 25 м.
Общий поток : 5346 Кбит/сек
Название фильма : THE_MARINE_6 (2018) WEB-DL 1080p
Дата кодирования : UTC 2018-11-13 10:45:49
Программа кодирования : mkvmerge v27.0.0 ('Metropolis') 64-bit
Библиотека кодирования : libebml v1.3.6 + libmatroska v1.4.9
Видео
Идентификатор : 1
Формат : AVC
Формат/Информация : Advanced Video Codec
Профиль формата : [email protected]
Настройки формата : CABAC / 5 Ref Frames
Параметр CABAC формата : Да
Параметр RefFrames формата : 5 кадров
Идентификатор кодека : V_MPEG4/ISO/AVC
Продолжительность : 1 ч. 25 м.
Битрейт : 4576 Кбит/сек
Ширина : 1916 пикселей
Высота : 800 пикселей
Соотношение сторон : 2,40:1
Режим частоты кадров : Постоянный
Частота кадров : 23,976 (23976/1000) кадра/сек
Цветовое пространство : YUV
Субдискретизация насыщенности : 4:2:0
Битовая глубина : 8 бит
Тип развёртки : Прогрессивная
Бит/(Пиксели*Кадры) : 0.125
Размер потока : 2,73 Гбайт (86%)
Заголовок : THE_MARINE_6 (2018) WEB-DL 1080p
Язык : English
Default : Да
Forced : Нет
Цветовой диапазон : Limited
Основные цвета : BT.709
Характеристики трансфера : BT.709
Коэффициенты матрицы : BT.709
Аудио #1
Идентификатор : 2
Формат : AC-3
Формат/Информация : Audio Coding 3
Идентификатор кодека : A_AC3
Продолжительность : 1 ч. 25 м.
Вид битрейта : Постоянный
Битрейт : 384 Кбит/сек
Каналы : 6 каналов
Расположение каналов : Front: L C R, Side: L R, LFE
Частота : 48,0 КГц
Частота кадров : 31,250 кадров/сек (1536 SPF)
Битовая глубина : 16 бит
Метод сжатия : С потерями
Размер потока : 235 Мбайт (7%)
Заголовок : iTunes
Язык : Russian
Default : Да
Forced : Нет
Аудио #2
Идентификатор : 3
Формат : AC-3
Формат/Информация : Audio Coding 3
Идентификатор кодека : A_AC3
Продолжительность : 1 ч. 25 м.
Вид битрейта : Постоянный
Битрейт : 384 Кбит/сек
Каналы : 6 каналов
Расположение каналов : Front: L C R, Side: L R, LFE
Частота : 48,0 КГц
Частота кадров : 31,250 кадров/сек (1536 SPF)
Битовая глубина : 16 бит
Метод сжатия : С потерями
Размер потока : 235 Мбайт (7%)
Язык : English
Default : Нет
Forced : Нет
Меню
00:00:00.000 : en:1
00:06:32.851 : en:2
00:10:37.887 : en:3
00:13:45.074 : en:4
00:19:48.479 : en:5
00:27:45.581 : en:6
00:31:33.058 : en:7
00:37:32.625 : en:8
00:41:16.056 : en:9
00:46:42.924 : en:10
00:52:12.837 : en:11
00:57:30.321 : en:12
01:02:04.428 : en:13
01:08:01.743 : en:14
01:15:20.264 : en:15
01:18:07.681 : en:16-
-

Скриншоты

--
-
[free-tor.info].t17726.torrent 
Торрент: Зарегистрирован [ 2018-11-13 20:43 ] · 68CF95DD03975269076CBF8C36F6FD11E82CB2D3

Скачать .torrent

Скачать .torrent

17 KB

Статус: проверено
.torrent скачан: 3 раз
Размер: 3,19 GB
Правила
Похожие темы

[Профиль] [ЛС]
Показать сообщения:    
Ответить на тему

Текущее время: 17-Июл 03:17

Часовой пояс: UTC + 4



Вы не можете начинать темы
Вы не можете отвечать на сообщения
Вы не можете редактировать свои сообщения
Вы не можете удалять свои сообщения
Вы не можете голосовать в опросах
Вы не можете прикреплять файлы к сообщениям
Вы можете скачивать файлы
Анализ веб сайтов Яндекс.Метрика