Ремнант: Всё ещё вижу тебя / I Still See You (Скотт Спир) [2018, триллер, детектив, мелодрама, фантастика, WEB-DL 1080p | iTunes]

Ответить на тему
Статистика раздачи [Обновить пиров]
Размер:  3,39 GB   |    Зарегистрирован:  8 месяцев   |    .torrent скачан:  10 раз
Сидов:  483  [  0 KB/s  ]   Личеров:  28  [  0 KB/s  ]   Подробная статистика пиров
 
   
 
 
Автор Сообщение

Skorp10n ®

Оффлайн

 Активный раздающий 1 Активный раздающий 2
 Активный релизер 1000 Активный релизер 1500 Активный релизер 2000 Активный релизер 250 Активный релизер 3000 Активный релизер 500 Активный релизер 5000 Активный релизер Фильмов (1000) Активный релизер Фильмов (300) Активный релизер Фильмов (600) Активный Форумчанин 1 Активный Форумчанин 2 Активный Форумчанин 3 Активный Форумчанин 4 Друг трекера Карма 1000 Карма 1500 Карма 3000 Карма 500 Меценат Ни дня без новостей Орденосец 1 степени Орденосец 2 степени Орденосец 3 степени Почетный орденосец Почетный репортер С Новым 2016 Годом! С Новым 2017 Годом! С Новым 2018 Годом! С Новым 2019 Годом! Супер Мега Контер Квейк ТОП-10

Пол: Мужской

Стаж: 3 года 11 месяцев

Наличие запрета:

Сообщений: 10847

Откуда: Free-Tor.com

Отдача: не определено

Загрузка: не определено

Нажми

Создавать темы 15-Ноя-2018 15:38

[Цитировать]

«Всё ещё вижу тебя»-Информация о фильме- Название: Ремнант: Всё ещё вижу тебя
Оригинальное название: I Still See You
Год выхода: 2018
Жанр: Триллер, детектив, мелодрама, фантастика
Режиссер: Скотт Спир
В ролях: Белла Торн, Ричард Хэрмон, Дермот Малруни, Эми Прайс-Фрэнсис, Шон Бенсон, Луис Хертэм, , омас Эльмс, Сара Томпсон, Дэвид Браун, Хью Диллон-О фильме:-Десять лет назад загадочная аномалия стерла границы между миром живых и мёртвых, и теперь в мире людей проявляются призраки. Их называют ремнанты. Никто не знает, откуда они взялись, но они подчиняются некоторым правилам: проявляются в одном и том же месте в одно и то же время и они не могут нанести вред живому человеку. Старшеклассница Вероника в собственной ванной однажды сталкивается с новым ремнантом молодого человека, которого она никогда не видела. Небольшое расследование показывает, что его звали Брайан, и с его именем связано несколько убийств молодых женщин.- -Страна: США
Студия: Gold Circle Films
Продолжительность: 01:37:55
Перевод: Профессиональный (полное дублирование) | iTunes-Файл-Качество: WEB-DL 1080p
Формат: MKV
Кодек: MPEG-4 AVC
Видео: 1912x796 (2,40:1), 23,976 fps, MPEG-4 AVC ~ 4569 Kbps avg, 0.125 bit/pixel
Аудио: AC3, 48 kHz, 6 ch, ~384.00 kbps avg | русский | iTunes-Субтитры: Отсутствуют-

Инфо-файл

-Общее
Уникальный идентификатор : 235890509947194086832191333818758428512 (0xB176DC135C1E129A6EDA2608755D7760)
Полное имя : I_STILL_SEE_YOU (2018) WEB-DL 1080p-KAZTORKA.mkv
Формат : Matroska
Версия формата : Version 4 / Version 2
Размер файла : 3,39 Гбайт
Продолжительность : 1 ч. 37 м.
Общий поток : 4955 Кбит/сек
Название фильма : I_STILL_SEE_YOU (2018) WEB-DL 1080p-KAZTORKA
Дата кодирования : UTC 2018-11-15 02:27:12
Программа кодирования : mkvmerge v27.0.0 ('Metropolis') 64-bit
Библиотека кодирования : libebml v1.3.6 + libmatroska v1.4.9
Видео
Идентификатор : 1
Формат : AVC
Формат/Информация : Advanced Video Codec
Профиль формата : [email protected]
Настройки формата : CABAC / 5 Ref Frames
Параметр CABAC формата : Да
Параметр RefFrames формата : 5 кадров
Идентификатор кодека : V_MPEG4/ISO/AVC
Продолжительность : 1 ч. 37 м.
Битрейт : 4569 Кбит/сек
Ширина : 1912 пикселей
Высота : 796 пикселей
Соотношение сторон : 2,40:1
Режим частоты кадров : Постоянный
Частота кадров : 23,976 кадра/сек
Цветовое пространство : YUV
Субдискретизация насыщенности : 4:2:0
Битовая глубина : 8 бит
Тип развёртки : Прогрессивная
Бит/(Пиксели*Кадры) : 0.125
Размер потока : 3,12 Гбайт (92%)
Заголовок : I_STILL_SEE_YOU (2018) WEB-DL 1080p-KAZTORKA
Язык : English
Default : Да
Forced : Нет
Цветовой диапазон : Limited
Основные цвета : BT.709
Характеристики трансфера : BT.709
Коэффициенты матрицы : BT.709
Аудио
Идентификатор : 2
Формат : AC-3
Формат/Информация : Audio Coding 3
Идентификатор кодека : A_AC3
Продолжительность : 1 ч. 37 м.
Вид битрейта : Постоянный
Битрейт : 384 Кбит/сек
Каналы : 6 каналов
Расположение каналов : Front: L C R, Side: L R, LFE
Частота : 48,0 КГц
Частота кадров : 31,250 кадров/сек (1536 SPF)
Битовая глубина : 16 бит
Метод сжатия : С потерями
Задержка видео : -42 мс.
Размер потока : 269 Мбайт (8%)
Заголовок : iTunes | I_STILL_SEE_YOU (2018) WEB-DL 1080p-KAZTORKA
Язык : Russian
Default : Да
Forced : Нет
Меню
00:00:00.000 : en:1
00:03:00.000 : en:2
00:12:29.000 : en:3
00:23:06.000 : en:4
00:32:12.000 : en:5
00:43:15.000 : en:6
00:50:02.000 : en:7
00:57:18.000 : en:8
01:09:30.000 : en:9
01:18:13.000 : en:10
01:32:18.000 : en:11-
-

Скриншоты

--
-
[free-tor.info].t17765.torrent 
Торрент: Зарегистрирован [ 2018-11-15 15:38 ] · 37A9B2A5DAFEB1936A97C4125B9CCD1AB2873430

Скачать .torrent

Скачать .torrent

18 KB

Статус: проверено
.torrent скачан: 10 раз
Размер: 3,39 GB
Правила
4udaki(15-Ноя-18), Roki19(18-Ноя-18)
Похожие темы

[Профиль] [ЛС]
Показать сообщения:    
Ответить на тему

Текущее время: 16-Июл 04:40

Часовой пояс: UTC + 4



Вы не можете начинать темы
Вы не можете отвечать на сообщения
Вы не можете редактировать свои сообщения
Вы не можете удалять свои сообщения
Вы не можете голосовать в опросах
Вы не можете прикреплять файлы к сообщениям
Вы можете скачивать файлы
Анализ веб сайтов Яндекс.Метрика