Опасный пассажир / Поездка / Ride (Джереми Ангар) [2018, триллер, WEB-DL 1080p | iTunes]

Ответить на тему
Статистика раздачи [Обновить пиров]
Размер:  2,88 GB   |    Зарегистрирован:  7 месяцев 26 дней   |    .torrent скачан:  9 раз
Сидов:  222  [  0 KB/s  ]   Личеров:  13  [  0 KB/s  ]   Подробная статистика пиров
 
   
 
 
Автор Сообщение

Skorp10n ®

Оффлайн

 Активный раздающий 1 Активный раздающий 2
 Активный релизер 1000 Активный релизер 1500 Активный релизер 2000 Активный релизер 250 Активный релизер 3000 Активный релизер 500 Активный релизер 5000 Активный релизер Фильмов (1000) Активный релизер Фильмов (300) Активный релизер Фильмов (600) Активный Форумчанин 1 Активный Форумчанин 2 Активный Форумчанин 3 Активный Форумчанин 4 Друг трекера Карма 1000 Карма 1500 Карма 3000 Карма 500 Меценат Ни дня без новостей Орденосец 1 степени Орденосец 2 степени Орденосец 3 степени Почетный орденосец Почетный репортер С Новым 2016 Годом! С Новым 2017 Годом! С Новым 2018 Годом! С Новым 2019 Годом! Супер Мега Контер Квейк ТОП-10

Пол: Мужской

Стаж: 3 года 11 месяцев

Наличие запрета:

Сообщений: 10847

Откуда: Free-Tor.com

Отдача: не определено

Загрузка: не определено

Нажми

Создавать темы 19-Ноя-2018 14:27

[Цитировать]

Информация о фильме- Название: Опасный пассажир / Поездка
Оригинальное название: Ride
Год выхода: 2018
Жанр: Триллер
Режиссер: Джереми Ангар
В ролях: Белла Торн, Джесси Ашер, Уилл Брилл, Байрон Л. Хопкинс, Хейли Кеанна Лаутенбах, Сара Линдсей-О фильме:-Когда Джеймс, водитель Убера, и его пассажирка Джессика остановились, чтобы подвезти харизматичного Бруно, они не знали, что этот спокойный вечер обернётся для них гонкой на выживание.- -Страна: США
Студия: Unified Pictures, Look to the Sky Films
Продолжительность: 01:16:27
Перевод: Дублированный | iTunes-Файл-Кодек: AVC
Качество: WEB-DL 1080p | Ride.2018.1080p.WEB-DL.DD5.1.H264-FGT
Видео: MPEG-4 AVC, 4629 Kбит/с, 1912x792, 23.976 Кадр/с
Звук: ► Релиз без Рекламы!
Аудио #1: Русский ( АС3, 6ch, 384 Кбит/с, 48.0 KHz) Профессиональный (Дублированный) iTunes
Аудио #2: Английский ( АС3, 6ch, 384 Кбит/с, 48.0 KHz)
Субтитры: Английские-

MediaInfo

-Источник: Ride.2018.1080p.WEB-DL.DD5.1.H264-FGT
General
Unique ID : 242853775022999800060680490139817840635 (0xB6B3EF8CD0D425B0860520C5276F8FFB)
Complete name : Ride.2018.WEB-DL.1080p.mkv
Format : Matroska
Format version : Version 4
File size : 2.88 GiB
Duration : 1 h 16 min
Overall bit rate : 5 399 kb/s
Movie name : Ride.2018.1080p.WEB-DL.DD5.1.H264-FGT
Encoded date : UTC 2018-11-18 20:25:45
Writing application : mkvmerge v7.1.0 ('Good Love') 64bit built on Jul 27 2014 13:06:55
Writing library : libebml v1.3.0 + libmatroska v1.4.1
Video
ID : 1
Format : AVC
Format/Info : Advanced Video Codec
Format profile : [email protected]
Format settings : CABAC / 5 Ref Frames
Format settings, CABAC : Yes
Format settings, ReFrames : 5 frames
Codec ID : V_MPEG4/ISO/AVC
Duration : 1 h 16 min
Bit rate : 4 629 kb/s
Width : 1 912 pixels
Height : 792 pixels
Display aspect ratio : 2.40:1
Frame rate mode : Constant
Frame rate : 23.976 (24000/1001) FPS
Color space : YUV
Chroma subsampling : 4:2:0
Bit depth : 8 bits
Scan type : Progressive
Bits/(Pixel*Frame) : 0.127
Stream size : 2.47 GiB (86%)
Title : Ride.2018.1080p.WEB-DL.DD5.1.H264-FGT
Language : English
Default : No
Forced : No
Color range : Limited
Color primaries : BT.709
Transfer characteristics : BT.709
Matrix coefficients : BT.709
Audio #1
ID : 2
Format : AC-3
Format/Info : Audio Coding 3
Commercial name : Dolby Digital
Codec ID : A_AC3
Duration : 1 h 16 min
Bit rate mode : Constant
Bit rate : 384 kb/s
Channel(s) : 6 channels
Channel layout : L R C LFE Ls Rs
Sampling rate : 48.0 kHz
Frame rate : 31.250 FPS (1536 SPF)
Bit depth : 16 bits
Compression mode : Lossy
Stream size : 210 MiB (7%)
Title : DUB | iTunes
Language : Russian
Service kind : Complete Main
Default : Yes
Forced : No
Audio #2
ID : 3
Format : AC-3
Format/Info : Audio Coding 3
Commercial name : Dolby Digital
Codec ID : A_AC3
Duration : 1 h 16 min
Bit rate mode : Constant
Bit rate : 384 kb/s
Channel(s) : 6 channels
Channel layout : L R C LFE Ls Rs
Sampling rate : 48.0 kHz
Frame rate : 31.250 FPS (1536 SPF)
Bit depth : 16 bits
Compression mode : Lossy
Stream size : 210 MiB (7%)
Language : English
Service kind : Complete Main
Default : No
Forced : No
Text
ID : 4
Format : UTF-8
Codec ID : S_TEXT/UTF8
Codec ID/Info : UTF-8 Plain Text
Duration : 1 h 12 min
Bit rate : 84 b/s
Count of elements : 1369
Stream size : 45.3 KiB (0%)
Language : English
Default : No
Forced : No
Menu
00:00:00.000 : en:1
00:10:47.271 : en:2
00:20:43.367 : en:3
00:31:00.400 : en:4
00:41:10.092 : en:5
00:49:45.983 : en:6
01:00:11.190 : en:7
01:09:19.613 : en:8
01:13:42.084 : en:9-
-

Скриншоты

--
-
[free-tor.info].t17838.torrent 
Торрент: Зарегистрирован [ 2018-11-19 14:27 ] · CBADFBC9B9E194916E27C74F371C53ECBA07E6DD

Скачать .torrent

Скачать .torrent

16 KB

Статус: проверено
.torrent скачан: 9 раз
Размер: 2,88 GB
Правила
Похожие темы

[Профиль] [ЛС]
Показать сообщения:    
Ответить на тему

Текущее время: 16-Июл 03:55

Часовой пояс: UTC + 4



Вы не можете начинать темы
Вы не можете отвечать на сообщения
Вы не можете редактировать свои сообщения
Вы не можете удалять свои сообщения
Вы не можете голосовать в опросах
Вы не можете прикреплять файлы к сообщениям
Вы можете скачивать файлы
Анализ веб сайтов Яндекс.Метрика