Игрушки для взрослых / The Happytime Murders (Брайан Хенсон) [2018, боевик, триллер, комедия, криминал, детектив, BDRip 1080p | iTunes]

Ответить на тему
Статистика раздачи [Обновить пиров]
Размер:  11,7 GB   |    Зарегистрирован:  7 месяцев 26 дней   |    .torrent скачан:  7 раз
Сидов:  705  [  0 KB/s  ]   Личеров:  42  [  0 KB/s  ]   Подробная статистика пиров
 
   
 
 
Автор Сообщение

Skorp10n ®

Оффлайн

 Активный раздающий 1 Активный раздающий 2
 Активный релизер 1000 Активный релизер 1500 Активный релизер 2000 Активный релизер 250 Активный релизер 3000 Активный релизер 500 Активный релизер 5000 Активный релизер Фильмов (1000) Активный релизер Фильмов (300) Активный релизер Фильмов (600) Активный Форумчанин 1 Активный Форумчанин 2 Активный Форумчанин 3 Активный Форумчанин 4 Друг трекера Карма 1000 Карма 1500 Карма 3000 Карма 500 Меценат Ни дня без новостей Орденосец 1 степени Орденосец 2 степени Орденосец 3 степени Почетный орденосец Почетный репортер С Новым 2016 Годом! С Новым 2017 Годом! С Новым 2018 Годом! С Новым 2019 Годом! Супер Мега Контер Квейк ТОП-10

Пол: Мужской

Стаж: 3 года 11 месяцев

Наличие запрета:

Сообщений: 10847

Откуда: Free-Tor.com

Отдача: не определено

Загрузка: не определено

Нажми

Создавать темы 21-Ноя-2018 00:38

[Цитировать]

«No Sesame. All Street»-Информация о фильме- Название: Игрушки для взрослых
Оригинальное название: The Happytime Murders
Год выхода: 2018
Жанр: Боевик, триллер, комедия, криминал, детектив
Режиссер: Брайан Хенсон
В ролях: Мелисса МакКарти, Элизабет Бэнкс, Майя Рудольф, Лесли Дэвид Бэйкер, Джоэл МакХэйл, Синти У, Майкл МакДональд, Митч Силпа, Хемки Мадера, Бенджамин Коул Ройер-О фильме:-Лос-Анджелес — город денег, знаменитостей и взрослых развлечений, здесь куклы живут бок о бок с людьми. Внезапно по мегаполису прокатывается волна загадочных преступлений, связанных со звездами популярного телешоу. И тогда на охоту выходят бывшие напарники — брутальный частный детектив и коп в юбке…- -Страна: США
Студия: Black Bear Pictures, Henson Alternative, Huayi Brothers Media, The Jim Henson Company, On The Day Productions, The Robert Simonds Company
Продолжительность: 01:30:49
Перевод: Профессиональный (полное дублирование) | iTunes-Файл-Качество: BDRip 1080p
Формат: MKV
Кодек: MPEG-4 AVC
Видео: 1920x798 (2,40:1), 23.976 fps, MPEG-4 AVC ~ 16,2 Мbps avg, 0.440 bit/pixel
Аудио: AC3, 48 kHz, 6 ch, ~384.00 kbps avg | русский | iTunes
Аудио: AC3, 48 kHz, 6 ch, ~384.00 kbps avg | украинский |
Аудио: DTS, 48 kHz, 6 ch, ~1509.00 kbps avg | английский | Оригинал-Субтитры: Английские (Full, SDH)-Семпл-

Инфо-файл

-Общее
Уникальный идентификатор : 19205991575688249146939947380830555312 (0xE72F07E66AA1859798C0F82369ECCB0)
Полное имя : The.Happytime.Murders.2018.1080p.BluRay.X264.Rus.Ukr.Eng.mkv
Формат : Matroska
Версия формата : Version 4 / Version 2
Размер файла : 11,7 Гбайт
Продолжительность : 1 ч. 30 м.
Общий поток : 18,4 Мбит/сек
Название фильма : Игрушки для взрослых (2018)
Дата кодирования : UTC 2018-11-19 23:44:04
Программа кодирования : mkvmerge v27.0.0 ('Metropolis') 64-bit
Библиотека кодирования : libebml v1.3.6 + libmatroska v1.4.9
Видео
Идентификатор : 1
Формат : AVC
Формат/Информация : Advanced Video Codec
Профиль формата : [email protected]
Настройки формата : CABAC / 5 Ref Frames
Параметр CABAC формата : Да
Параметр RefFrames формата : 5 кадров
Идентификатор кодека : V_MPEG4/ISO/AVC
Продолжительность : 1 ч. 30 м.
Битрейт : 16,2 Мбит/сек
Ширина : 1920 пикселей
Высота : 798 пикселей
Соотношение сторон : 2,40:1
Режим частоты кадров : Постоянный
Частота кадров : 23,976 (24000/1001) кадра/сек
Цветовое пространство : YUV
Субдискретизация насыщенности : 4:2:0
Битовая глубина : 8 бит
Тип развёртки : Прогрессивная
Бит/(Пиксели*Кадры) : 0.440
Размер потока : 10,3 Гбайт (88%)
Заголовок : The.Happytime.Murders.2018.1080p.BluRay.X264.Rus.Ukr.Eng
Библиотека кодирования : x264 core 157 r2932+2 (master: 303c484 / tmod: 1b88d0a) [X86_64]
Настройки программы : cabac=1 / ref=5 / deblock=1:-3:-3 / analyse=0x3:0x133 / me=umh / subme=11 / psy=1 / psy_rd=1.05:0.10 / mixed_ref=1 / me_range=48 / chroma_me=1 / trellis=2 / 8x8dct=1 / cqm=0 / deadzone=6,6 / fast_pskip=0 / chroma_qp_offset=-3 / threads=25 / lookahead_threads=6 / sliced_threads=0 / nr=0 / decimate=0 / interlaced=0 / bluray_compat=0 / constrained_intra=0 / bframes=10 / b_pyramid=2 / b_adapt=2 / b_bias=0 / direct=3 / weightb=1 / open_gop=0 / weightp=2 / keyint=250 / keyint_min=23 / scenecut=40 / intra_refresh=0 / rc_lookahead=60 / rc=crf / mbtree=0 / crf=18.8 / qcomp=0.70 / qpmin=0 / qpmax=69 / qpstep=4 / vbv_maxrate=62500 / vbv_bufsize=78125 / crf_max=0.0 / nal_hrd=none / filler=0 / ip_ratio=1.25 / pb_ratio=1.20 / aq=3:0.75
Язык : English
Default : Да
Forced : Нет
Аудио #1
Идентификатор : 2
Формат : AC-3
Формат/Информация : Audio Coding 3
Идентификатор кодека : A_AC3
Продолжительность : 1 ч. 30 м.
Вид битрейта : Постоянный
Битрейт : 384 Кбит/сек
Каналы : 6 каналов
Расположение каналов : Front: L C R, Side: L R, LFE
Частота : 48,0 КГц
Частота кадров : 31,250 кадров/сек (1536 SPF)
Битовая глубина : 16 бит
Метод сжатия : С потерями
Размер потока : 249 Мбайт (2%)
Заголовок : iTunes
Язык : Russian
Default : Да
Forced : Да
Аудио #2
Идентификатор : 3
Формат : AC-3
Формат/Информация : Audio Coding 3
Идентификатор кодека : A_AC3
Продолжительность : 1 ч. 30 м.
Вид битрейта : Постоянный
Битрейт : 384 Кбит/сек
Каналы : 6 каналов
Расположение каналов : Front: L C R, Side: L R, LFE
Частота : 48,0 КГц
Частота кадров : 31,250 кадров/сек (1536 SPF)
Битовая глубина : 16 бит
Метод сжатия : С потерями
Размер потока : 249 Мбайт (2%)
Язык : Ukrainian
Default : Нет
Forced : Нет
Аудио #3
Идентификатор : 4
Формат : DTS
Формат/Информация : Digital Theater Systems
Идентификатор кодека : A_DTS
Продолжительность : 1 ч. 30 м.
Вид битрейта : Постоянный
Битрейт : 1509 Кбит/сек
Каналы : 6 каналов
Расположение каналов : Front: L C R, Side: L R, LFE
Частота : 48,0 КГц
Частота кадров : 93,750 кадра/сек (512 SPF)
Битовая глубина : 16 бит
Метод сжатия : С потерями
Размер потока : 980 Мбайт (8%)
Язык : English
Default : Нет
Forced : Нет
Текст #1
Идентификатор : 5
Формат : UTF-8
Идентификатор кодека : S_TEXT/UTF8
Идентификатор кодека/Информация : UTF-8 Plain Text
Продолжительность : 1 ч. 19 м.
Битрейт : 92 бит/сек
ElementCount : 1770
Размер потока : 53,7 Кбайт (0%)
Заголовок : Full
Язык : English
Default : Нет
Forced : Нет
Текст #2
Идентификатор : 6
Формат : UTF-8
Идентификатор кодека : S_TEXT/UTF8
Идентификатор кодека/Информация : UTF-8 Plain Text
Продолжительность : 1 ч. 20 м.
Битрейт : 105 бит/сек
ElementCount : 1976
Размер потока : 62,1 Кбайт (0%)
Заголовок : SDH
Язык : English
Default : Нет
Forced : Нет
Меню
00:00:00.000 : en:00:00:00.000
00:08:35.765 : en:00:08:35.765
00:15:12.995 : en:00:15:12.995
00:22:23.676 : en:00:22:23.676
00:31:17.250 : en:00:31:17.250
00:38:13.208 : en:00:38:13.208
00:44:11.899 : en:00:44:11.899
00:51:28.752 : en:00:51:28.752
01:00:52.524 : en:01:00:52.524
01:08:02.662 : en:01:08:02.662
01:14:15.868 : en:01:14:15.868
01:20:37.541 : en:01:20:37.541-
-

Скриншоты

--
-
[free-tor.info].t17857.torrent 
Торрент: Зарегистрирован [ 2018-11-21 00:38 ] · 282878CEA362DA6119EA1E7EEE00A5168D4C7576

Скачать .torrent

Скачать .torrent

30 KB

Статус: проверено
.torrent скачан: 7 раз
Размер: 11,7 GB
Правила
4udaki(21-Ноя-18), Volodymyr(23-Ноя-18)
Похожие темы

[Профиль] [ЛС]
Показать сообщения:    
Ответить на тему

Текущее время: 17-Июл 02:26

Часовой пояс: UTC + 4



Вы не можете начинать темы
Вы не можете отвечать на сообщения
Вы не можете редактировать свои сообщения
Вы не можете удалять свои сообщения
Вы не можете голосовать в опросах
Вы не можете прикреплять файлы к сообщениям
Вы можете скачивать файлы
Анализ веб сайтов Яндекс.Метрика