Школа / The School (Сторм Эшвуд) [2018, ужасы, триллер, BDRip 1080p | iTunes]

Ответить на тему
Статистика раздачи [Обновить пиров]
Размер:  7,65 GB   |    Зарегистрирован:  7 месяцев 23 дня   |    .torrent скачан:  8 раз
Сидов:  11  [  0 KB/s  ]   Личеров:  4  [  0 KB/s  ]   Подробная статистика пиров
 
   
 
 
Автор Сообщение

Skorp10n ®

Оффлайн

 Активный раздающий 1 Активный раздающий 2
 Активный релизер 1000 Активный релизер 1500 Активный релизер 2000 Активный релизер 250 Активный релизер 3000 Активный релизер 500 Активный релизер 5000 Активный релизер Фильмов (1000) Активный релизер Фильмов (300) Активный релизер Фильмов (600) Активный Форумчанин 1 Активный Форумчанин 2 Активный Форумчанин 3 Активный Форумчанин 4 Друг трекера Карма 1000 Карма 1500 Карма 3000 Карма 500 Меценат Ни дня без новостей Орденосец 1 степени Орденосец 2 степени Орденосец 3 степени Почетный орденосец Почетный репортер С Новым 2016 Годом! С Новым 2017 Годом! С Новым 2018 Годом! С Новым 2019 Годом! Супер Мега Контер Квейк ТОП-10

Пол: Мужской

Стаж: 3 года 11 месяцев

Наличие запрета:

Сообщений: 10847

Откуда: Free-Tor.com

Отдача: не определено

Загрузка: не определено

Нажми

Создавать темы 23-Ноя-2018 12:11

[Цитировать]

Информация о фильме- Название: Школа
Оригинальное название: The School
Год выхода: 2018
Жанр: Ужасы, триллер
Режиссер: Сторм Эшвуд
В ролях: Меган Друри, Милли Олкок, Николас Хоуп, Тексас Уоттерстон, Уилл МакДональд, Джек Равалд, Алексиа Сантосуссо, Хони Поа, Сэсси Соупидис, Джаспер Ллойд, Тереза МакКарти, Кристиан Уиллис, Шерил Крэйг, Шанель Мюллер, Айви Ли, Леа Эшвуд, Арна Роджерс, Ванесса Роджерс-О фильме:-Доктор Эми Винтеркрейг на протяжении двух лет тщетно мечтает о том, чтобы ее сын вышел из комы. Внезапно очутившись между потусторонним миром и реальным, где обитают души не нашедших покоя детей, пытаясь совладать с потоком мыслей и страхом сделать что-то не так, Эми должна пройтись по месту, которое некогда было школой и среди бесконечной вереницы коридоров, лестниц и кабинетов отыскать душу своего собственного ребенка. Однако, чтобы добиться желаемого, женщине необходимо проявить сильную волю и смекалку, так как на ее пути оказывается слишком много врагов, которые не спешат помогать ей в поисках сына. И если совершить хотя бы одну ошибку, то можно остаться в школе гораздо дольше предполагаемого срока, или не выбраться из нее вообще.- -Страна: Австралия
Студия: Bronte Pictures, Head Gear Films
Продолжительность: 01:28:47
Перевод: Дублированный | iTunes-Файл-Кодек: x.264
Качество: BDRip 1080p
Видео: MPEG-4 AVC, 1920x804, 11.5 Mбит/с, 23.976 кадр/с
Аудио #1: Русский ( АС3, 6ch, 384 Кбит/с, 48.0 KHz) Профессиональный (Дублированный) iTunes
Аудио #2: Английский ( АС3, 6ch, 448 Кбит/с, 48.0 KHz)
Субтитры: английские-

MediaInfo

-Источник: The.School.2018.1080p.BluRay.x264.DTS-FGT
General
Unique ID : 218752736436558372308506112017532742888 (0xA4923E9AF56B5EEBA4DC5E07C0686CE8)
Complete name : The.School.2018.BDRip.1080p.mkv
Format : Matroska
Format version : Version 4
File size : 7.65 GiB
Duration : 1 h 28 min
Overall bit rate : 12.3 Mb/s
Encoded date : UTC 2018-11-22 15:58:52
Writing application : mkvmerge v7.1.0 ('Good Love') 64bit built on Jul 27 2014 13:06:55
Writing library : libebml v1.3.0 + libmatroska v1.4.1
Video
ID : 1
Format : AVC
Format/Info : Advanced Video Codec
Format profile : [email protected]
Format settings : CABAC / 4 Ref Frames
Format settings, CABAC : Yes
Format settings, ReFrames : 4 frames
Codec ID : V_MPEG4/ISO/AVC
Duration : 1 h 28 min
Bit rate : 11.5 Mb/s
Width : 1 920 pixels
Height : 804 pixels
Display aspect ratio : 2.40:1
Frame rate mode : Constant
Frame rate : 23.976 (24000/1001) FPS
Color space : YUV
Chroma subsampling : 4:2:0
Bit depth : 8 bits
Scan type : Progressive
Bits/(Pixel*Frame) : 0.311
Stream size : 7.13 GiB (93%)
Writing library : x264 core 148 r2795M aaa9aa8
Encoding settings : cabac=1 / ref=4 / deblock=1:-2:-2 / analyse=0x3:0x113 / me=umh / subme=9 / psy=1 / psy_rd=1.00:0.15 / mixed_ref=1 / me_range=16 / chroma_me=1 / trellis=2 / 8x8dct=1 / cqm=0 / deadzone=21,11 / fast_pskip=1 / chroma_qp_offset=-3 / threads=24 / lookahead_threads=3 / sliced_threads=0 / nr=0 / decimate=1 / interlaced=0 / bluray_compat=0 / constrained_intra=0 / bframes=3 / b_pyramid=2 / b_adapt=1 / b_bias=0 / direct=3 / weightb=1 / open_gop=0 / weightp=2 / keyint=250 / keyint_min=25 / scenecut=40 / intra_refresh=0 / rc_lookahead=50 / rc=2pass / mbtree=1 / bitrate=11500 / ratetol=1.0 / qcomp=0.60 / qpmin=0 / qpmax=69 / qpstep=4 / cplxblur=20.0 / qblur=0.5 / vbv_maxrate=31250 / vbv_bufsize=31250 / nal_hrd=none / filler=0 / ip_ratio=1.40 / aq=1:1.00
Language : English
Default : Yes
Forced : No
Audio #1
ID : 2
Format : AC-3
Format/Info : Audio Coding 3
Commercial name : Dolby Digital
Codec ID : A_AC3
Duration : 1 h 28 min
Bit rate mode : Constant
Bit rate : 384 kb/s
Channel(s) : 6 channels
Channel layout : L R C LFE Ls Rs
Sampling rate : 48.0 kHz
Frame rate : 31.250 FPS (1536 SPF)
Bit depth : 16 bits
Compression mode : Lossy
Stream size : 244 MiB (3%)
Title : DUB | iTunes
Language : Russian
Service kind : Complete Main
Default : Yes
Forced : No
Audio #2
ID : 3
Format : AC-3
Format/Info : Audio Coding 3
Commercial name : Dolby Digital
Codec ID : A_AC3
Duration : 1 h 28 min
Bit rate mode : Constant
Bit rate : 448 kb/s
Channel(s) : 6 channels
Channel layout : L R C LFE Ls Rs
Sampling rate : 48.0 kHz
Frame rate : 31.250 FPS (1536 SPF)
Bit depth : 16 bits
Compression mode : Lossy
Stream size : 285 MiB (4%)
Language : English
Service kind : Complete Main
Default : No
Forced : No
Text
ID : 4
Format : UTF-8
Codec ID : S_TEXT/UTF8
Codec ID/Info : UTF-8 Plain Text
Duration : 1 h 23 min
Bit rate : 31 b/s
Count of elements : 699
Stream size : 19.2 KiB (0%)
Language : English
Default : No
Forced : No
Menu
00:00:00.000 : en:Chapter 01
00:07:33.202 : en:Chapter 02
00:15:37.770 : en:Chapter 03
00:23:28.115 : en:Chapter 04
00:31:16.332 : en:Chapter 05
00:37:46.138 : en:Chapter 06
00:45:19.091 : en:Chapter 07
00:52:51.001 : en:Chapter 08
01:02:38.838 : en:Chapter 09
01:06:23.229 : en:Chapter 10
01:14:22.082 : en:Chapter 11
01:23:19.411 : en:Chapter 12-
-

Скриншоты

--
-
[free-tor.info].t17890.torrent 
Торрент: Зарегистрирован [ 2018-11-23 12:11 ] · 3D40E255D05D1807E6A9FD2E88B0D3CF96681821

Скачать .torrent

Скачать .torrent

21 KB

Статус: проверено
.torrent скачан: 8 раз
Размер: 7,65 GB
Правила
Похожие темы

[Профиль] [ЛС]
Показать сообщения:    
Ответить на тему

Текущее время: 17-Июл 03:07

Часовой пояс: UTC + 4



Вы не можете начинать темы
Вы не можете отвечать на сообщения
Вы не можете редактировать свои сообщения
Вы не можете удалять свои сообщения
Вы не можете голосовать в опросах
Вы не можете прикреплять файлы к сообщениям
Вы можете скачивать файлы
Анализ веб сайтов Яндекс.Метрика