Безупречная жизнь / Uma Vida Sublime (Луиш Диого) [2018, триллер, WEB-DL 1080p | iTunes]

Ответить на тему
Статистика раздачи [Обновить пиров]
Размер:  3,97 GB   |    Зарегистрирован:  7 месяцев 20 дней   |    .torrent скачан:  5 раз
Сидов:  632  [  0 KB/s  ]   Личеров:  17  [  0 KB/s  ]   Подробная статистика пиров
 
   
 
 
Автор Сообщение

Skorp10n ®

Оффлайн

 Активный раздающий 1 Активный раздающий 2
 Активный релизер 1000 Активный релизер 1500 Активный релизер 2000 Активный релизер 250 Активный релизер 3000 Активный релизер 500 Активный релизер 5000 Активный релизер Фильмов (1000) Активный релизер Фильмов (300) Активный релизер Фильмов (600) Активный Форумчанин 1 Активный Форумчанин 2 Активный Форумчанин 3 Активный Форумчанин 4 Друг трекера Карма 1000 Карма 1500 Карма 3000 Карма 500 Меценат Ни дня без новостей Орденосец 1 степени Орденосец 2 степени Орденосец 3 степени Почетный орденосец Почетный репортер С Новым 2016 Годом! С Новым 2017 Годом! С Новым 2018 Годом! С Новым 2019 Годом! Супер Мега Контер Квейк ТОП-10

Пол: Мужской

Стаж: 3 года 11 месяцев

Наличие запрета:

Сообщений: 10847

Откуда: Free-Tor.com

Отдача: не определено

Загрузка: не определено

Нажми

Создавать темы 26-Ноя-2018 09:45

[Цитировать]

Информация о фильме- Название: Безупречная жизнь
Оригинальное название: Uma Vida Sublime
Год выхода: 2018
Жанр: Триллер
Страна: Португалия
Перевод: Профессиональный (многоголосый закадровый) | iTunes
Продолжительность: 01:45:49
Режиссер: Луиш Диого
В ролях: Эрик Да Силва, Сюзи Филипе, Руй Оливейра, Пауло Калатре, Вальдемар Сантош, Мафалда, Жоржи Ролла, Тьяго Морейра, Анжела Маркус, Тереза Чавес и др.-О фильме: Казалось бы, жизнь улыбается Жилу Морейре. У него большой дом, отличный автомобиль и непыльная работа. Однако жена изводит Жила своими придирками, дочери его ни в грош не ставят и только клянчат деньги на новые покупки, а сам он изнывает от скуки на рабочем месте. Однажды этому безрадостному существованию приходит конец. Жил берется помочь незнакомцу. Он садится в его машину, чтобы показать дорогу к ближайшему ресторанчику, не догадываясь, что его подстерегает смертельная опасность…- -Файл-Формат: MKV
Качество: WEB-DL 1080p
Видео: MPEG-4 AVC, 1920x1040, 5179 kbps, 24,000 fps
Звук: русский, AC3, 2.0 ch, 48 kHz, 192 kbps | iTunes
Субтитры: нет-

MI

-General
Уникальный идентификатор : 219149620922339113157326190368576779628 (0xA4DEAE856F284703BA8F19CB2820356C)
Полное имя : F:TorrentUmaVidaSublimeWEBDL1080p.mkv
Формат : Matroska
Версия формата : Version 4 / Version 2
Размер файла : 3.97 GiB
Продолжительность : 1 h 45 min
Общий поток : 5 372 kb/s
Дата кодирования : UTC 2018-11-24 19:54:29
Программа кодирования : mkvmerge v9.5.0 ('Quiet Fire') 64bit
Библиотека кодирования : libebml v1.3.4 + libmatroska v1.4.5
Video
Идентификатор : 1
Формат : AVC
Формат/Информация : Advanced Video Codec
Профиль формата : [email protected]
Настройки формата : CABAC / 4 Ref Frames
Параметр CABAC формата : Yes
Параметр RefFrames формата : 4 frames
Идентификатор кодека : V_MPEG4/ISO/AVC
Продолжительность : 1 h 45 min
Битрейт : 5 179 kb/s
Ширина : 1 920 pixels
Высота : 1 040 pixels
Соотношение сторон : 1.85:1
Режим частоты кадров : Constant
Частота кадров : 24.000 FPS
Цветовое пространство : YUV
Субдискретизация насыщенности : 4:2:0
Битовая глубина : 8 bits
Тип развёртки : Progressive
Бит/(Пиксели*Кадры) : 0.108
Размер потока : 3.83 GiB (96%)
Язык : English
Default : Yes
Forced : No
Цветовой диапазон : Limited
Основные цвета : BT.709
Характеристики трансфера : BT.709
Коэффициенты матрицы : BT.709
Audio
Идентификатор : 2
Формат : AC-3
Формат/Информация : Audio Coding 3
Идентификатор кодека : A_AC3
Продолжительность : 1 h 45 min
Вид битрейта : Constant
Битрейт : 192 kb/s
Каналы : 2 channels
Расположение каналов : Front: L R
Частота : 48.0 kHz
Частота кадров : 31.250 FPS (1536 SPF)
Битовая глубина : 16 bits
Метод сжатия : Lossy
Размер потока : 145 MiB (4%)
Язык : Russian
Default : Yes
Forced : No
Menu
00:00:00.000 : en:Глава 1
00:04:25.791 : en:Глава 2
00:11:05.957 : en:Глава 3
00:18:16.207 : en:Глава 4
00:23:43.498 : en:Глава 5
00:30:04.373 : en:Глава 6
00:36:30.914 : en:Глава 7
00:43:55.872 : en:Глава 8
00:50:37.622 : en:Глава 9
00:56:20.955 : en:Глава 10
01:01:30.413 : en:Глава 11
01:10:26.663 : en:Глава 12
01:16:48.204 : en:Глава 13
01:20:15.995 : en:Глава 14
01:31:26.620 : en:Глава 15
01:39:48.328 : en:Глава 16-
-

Скриншоты

--
-
[free-tor.info].t17918.torrent 
Торрент: Зарегистрирован [ 2018-11-26 09:45 ] · FF9C0E5C8E1D0542CDB7F5726D47250C1960F934

Скачать .torrent

Скачать .torrent

21 KB

Статус: проверено
.torrent скачан: 5 раз
Размер: 3,97 GB
Правила
Похожие темы

[Профиль] [ЛС]
Показать сообщения:    
Ответить на тему

Текущее время: 17-Июл 02:24

Часовой пояс: UTC + 4



Вы не можете начинать темы
Вы не можете отвечать на сообщения
Вы не можете редактировать свои сообщения
Вы не можете удалять свои сообщения
Вы не можете голосовать в опросах
Вы не можете прикреплять файлы к сообщениям
Вы можете скачивать файлы
Анализ веб сайтов Яндекс.Метрика