Дубликат / Jonathan (Билл Оливер) [2018, фантастика, драма, WEB-DL 1080p | iTunes]

Ответить на тему
Статистика раздачи [Обновить пиров]
Размер:  7,3 GB   |    Зарегистрирован:  6 месяцев 17 дней   |    .torrent скачан:  9 раз
Сидов:  507  [  0 KB/s  ]   Личеров:  38  [  0 KB/s  ]   Подробная статистика пиров
 
   
 
 
Автор Сообщение

Skorp10n ®

Оффлайн

 Активный раздающий 1 Активный раздающий 2
 Активный релизер 1000 Активный релизер 1500 Активный релизер 2000 Активный релизер 250 Активный релизер 3000 Активный релизер 500 Активный релизер 5000 Активный релизер Фильмов (1000) Активный релизер Фильмов (300) Активный релизер Фильмов (600) Активный Форумчанин 1 Активный Форумчанин 2 Активный Форумчанин 3 Активный Форумчанин 4 Друг трекера Карма 1000 Карма 1500 Карма 3000 Карма 500 Меценат Ни дня без новостей Орденосец 1 степени Орденосец 2 степени Орденосец 3 степени Почетный орденосец Почетный репортер С Новым 2016 Годом! С Новым 2017 Годом! С Новым 2018 Годом! С Новым 2019 Годом! Супер Мега Контер Квейк ТОП-10

Пол: Мужской

Стаж: 3 года 10 месяцев

Наличие запрета:

Сообщений: 10762

Откуда: Free-Tor.com

Отдача: не определено

Загрузка: не определено

Нажми

Создавать темы 29-Ноя-2018 11:45

[Цитировать]

Информация о фильме- Название: Дубликат
Оригинальное название: Jonathan
Год выхода: 2018
Жанр: Фантастика, драма
Режиссер: Билл Оливер
В ролях: Энсел Элгорт, Патришия Кларксон, Сьюки Уотерхаус, Мэтт Бомер, Дуглас Ходж, Джо Эгендер, Джефф Ким, Аласка Л. МакФедден, Джули Микельсон, Шунори Раманатхан-О фильме:-Как многие жители Манхэттена, Джонатан просыпается ровно в 7 утра и отправляется на работу, а вечером ложится спать. Вроде бы всё, как у всех. Если бы не одно «но» — каждый день молодой человек проживает две жизни. Пока одна личность спит, вторая ведёт активную жизнь. И каждое утро Джонатану приходит видео от самого себя — о том, что он делал во второй половине дня.- -Страна: США
Студия: Manis Film, Raised by Wolves
Продолжительность: 01:40:46
Перевод: Профессиональный (многоголосый, закадровый) | iTunes-Файл-Качество: WEB-DL 1080p | Amazon
Формат: MKV
Кодек: MPEG-4 AVC
Видео: 1920x800 (2,40:1), 23.976 fps, MPEG-4 AVC ~ 9350 Kbps avg, 0.254 bit/pixel
Аудио: AC3, 48 kHz, 6 ch, ~384.00 kbps avg | русский | iTunes
Аудио: E-AC3, 48 kHz, 6 ch, ~640.00 kbps avg | английский | Оригинал-Субтитры: Английские (SDH)-

Инфо-файл

-Общее
Уникальный идентификатор : 295142592722661786863087573714624058276 (0xDE0A654DD4E4251A7BC257022E3013A4)
Полное имя : JONATHAN (2018) AMZN_WEB-DL 1080p).mkv
Формат : Matroska
Версия формата : Version 4 / Version 2
Размер файла : 7,30 Гбайт
Продолжительность : 1 ч. 40 м.
Общий поток : 10,4 Мбит/сек
Название фильма : JONATHAN (2018) AMZN_WEB-DL 1080p
Дата кодирования : UTC 2018-11-29 01:12:56
Программа кодирования : mkvmerge v27.0.0 ('Metropolis') 64-bit
Библиотека кодирования : libebml v1.3.6 + libmatroska v1.4.9
Видео
Идентификатор : 1
Формат : AVC
Формат/Информация : Advanced Video Codec
Профиль формата : [email protected]
Настройки формата : CABAC / 4 Ref Frames
Параметр CABAC формата : Да
Параметр RefFrames формата : 4 кадра
Параметр GOP формата : M=4, N=48
Идентификатор кодека : V_MPEG4/ISO/AVC
Продолжительность : 1 ч. 40 м.
Вид битрейта : Постоянный
Битрейт : 9350 Кбит/сек
Номинальный битрейт : 10000 Кбит/сек
Ширина : 1920 пикселей
Высота : 800 пикселей
Соотношение сторон : 2,40:1
Режим частоты кадров : Постоянный
Частота кадров : 23,976 (24000/1001) кадра/сек
Цветовое пространство : YUV
Субдискретизация насыщенности : 4:2:0
Битовая глубина : 8 бит
Тип развёртки : Прогрессивная
Бит/(Пиксели*Кадры) : 0.254
Размер потока : 6,58 Гбайт (90%)
Заголовок : JONATHAN (2018) AMZN_WEB-DL 1080p
Язык : English
Default : Да
Forced : Нет
Цветовой диапазон : Limited
Основные цвета : BT.709
Характеристики трансфера : BT.709
Коэффициенты матрицы : BT.709
Аудио #1
Идентификатор : 2
Формат : AC-3
Формат/Информация : Audio Coding 3
Идентификатор кодека : A_AC3
Продолжительность : 1 ч. 40 м.
Вид битрейта : Постоянный
Битрейт : 384 Кбит/сек
Каналы : 6 каналов
Расположение каналов : Front: L C R, Side: L R, LFE
Частота : 48,0 КГц
Частота кадров : 31,250 кадров/сек (1536 SPF)
Битовая глубина : 16 бит
Метод сжатия : С потерями
Размер потока : 277 Мбайт (4%)
Заголовок : iTunes | JONATHAN (2018) AMZN_WEB-DL 1080p
Язык : Russian
Default : Да
Forced : Да
Аудио #2
Идентификатор : 3
Формат : E-AC-3
Формат/Информация : Enhanced Audio Coding 3
Идентификатор кодека : A_EAC3
Продолжительность : 1 ч. 40 м.
Вид битрейта : Постоянный
Битрейт : 640 Кбит/сек
Каналы : 6 каналов
Расположение каналов : Front: L C R, Side: L R, LFE
Частота : 48,0 КГц
Частота кадров : 187,500 кадров/сек (256 SPF)
Метод сжатия : С потерями
Размер потока : 461 Мбайт (6%)
Язык : English
Default : Нет
Forced : Нет
Текст
Идентификатор : 4
Формат : UTF-8
Идентификатор кодека : S_TEXT/UTF8
Идентификатор кодека/Информация : UTF-8 Plain Text
Продолжительность : 1 ч. 35 м.
Битрейт : 46 бит/сек
ElementCount : 1205
Размер потока : 32,2 Кбайт (0%)
Заголовок : SDH
Язык : English
Default : Нет
Forced : Нет-
-

Скриншоты

--
-
[free-tor.info].t17957.torrent 
Торрент: Зарегистрирован [ 2018-11-29 11:45 ] · C05F90B7920C60D8B18F67FEA21A5FE357BE3BFF

Скачать .torrent

Скачать .torrent

19 KB

Статус: проверено
.torrent скачан: 9 раз
Размер: 7,3 GB
Правила
Похожие темы

[Профиль] [ЛС]
Показать сообщения:    
Ответить на тему

Текущее время: 16-Июн 22:32

Часовой пояс: UTC + 4



Вы не можете начинать темы
Вы не можете отвечать на сообщения
Вы не можете редактировать свои сообщения
Вы не можете удалять свои сообщения
Вы не можете голосовать в опросах
Вы не можете прикреплять файлы к сообщениям
Вы можете скачивать файлы
Анализ веб сайтов Яндекс.Метрика