Чёрный клановец / BlacKkKlansman (Спайк Ли) [2018, драма, комедия, криминал, биография, BDRip 1080p | iTunes]

Ответить на тему
Статистика раздачи [Обновить пиров]
Размер:  9,83 GB   |    Зарегистрирован:  7 месяцев 17 дней   |    .torrent скачан:  6 раз
Сидов:  457  [  0 KB/s  ]   Личеров:  30  [  0 KB/s  ]   Подробная статистика пиров
 
   
 
 
Автор Сообщение

Skorp10n ®

Оффлайн

 Активный раздающий 1 Активный раздающий 2
 Активный релизер 1000 Активный релизер 1500 Активный релизер 2000 Активный релизер 250 Активный релизер 3000 Активный релизер 500 Активный релизер 5000 Активный релизер Фильмов (1000) Активный релизер Фильмов (300) Активный релизер Фильмов (600) Активный Форумчанин 1 Активный Форумчанин 2 Активный Форумчанин 3 Активный Форумчанин 4 Друг трекера Карма 1000 Карма 1500 Карма 3000 Карма 500 Меценат Ни дня без новостей Орденосец 1 степени Орденосец 2 степени Орденосец 3 степени Почетный орденосец Почетный репортер С Новым 2016 Годом! С Новым 2017 Годом! С Новым 2018 Годом! С Новым 2019 Годом! Супер Мега Контер Квейк ТОП-10

Пол: Мужской

Стаж: 3 года 11 месяцев

Наличие запрета:

Сообщений: 10847

Откуда: Free-Tor.com

Отдача: не определено

Загрузка: не определено

Нажми

Создавать темы 29-Ноя-2018 12:07

[Цитировать]

Информация о фильме- Название: Чёрный клановец
Оригинальное название: BlacKkKlansman
Год выхода: 2018
Жанр: Драма, комедия, криминал, биография
Режиссер: Спайк Ли
В ролях: Алек Болдуин, Джон Дэвид Вашингтон, Исайя Уитлок мл., Роберт Джон Бёрк, Брайан Тарантина, Артур Дж. Наскарелла, Кен Гарито, Фред Уэллер, Адам Драйвер, Майкл Бушеми, Эшли Эткинсон-О фильме: Внедриться в Ку-Клукс-Клан - задача не из легких, особенно если ты чернокожий. Но целеустремленного полицейского из Колорадо такие мелочи не смущают. Вместе с напарником-евреем он вступает в неравный бой с опаснейшими противниками.- -Страна: США
Студия: 40 Acres & A Mule Filmworks, Blumhouse Productions, Legendary Entertainment
Продолжительность: 02:14:49
Перевод: Дублированный (iTunes)-Качество: BDRip 1080p
Видео: MPEG-4 AVC, 1920x800, 9607 Кбит/c, 23.976 Кадр/с
Аудио: Русский (AC3, 6 ch, 384 Кбит/с), английский (AC3, 6 ch, 448 Кбит/с)
Субтитры: Английские-

MI

-General
Unique ID : 136027708986980142920709005542379437855 (0x6655FBDA588338E6D3EF5CD4B96F3F1F)
Complete name : F:BlacKkKlansman.2018.bdriP.108Op.werecut.PROD.mkv
Format : Matroska
Format version : Version 4
File size : 9.83 GiB
Duration : 2 h 14 min
Overall bit rate : 10.4 Mb/s
Movie name : BlacKkKlansman 2018 OT werecut PROD.
Encoded date : UTC 2018-11-29 03:10:17
Writing application : mkvmerge v24.0.0 ('Beyond The Pale') 64-bit
Writing library : libebml v1.3.6 + libmatroska v1.4.9
Video
ID : 1
Format : AVC
Format/Info : Advanced Video Codec
Format profile : [email protected]
Format settings : CABAC / 5 Ref Frames
Format settings, CABAC : Yes
Format settings, ReFrames : 5 frames
Codec ID : V_MPEG4/ISO/AVC
Duration : 2 h 14 min
Bit rate : 9 607 kb/s
Width : 1 920 pixels
Height : 800 pixels
Display aspect ratio : 2.40:1
Frame rate mode : Constant
Frame rate : 23.976 (24000/1001) FPS
Color space : YUV
Chroma subsampling : 4:2:0
Bit depth : 8 bits
Scan type : Progressive
Bits/(Pixel*Frame) : 0.261
Stream size : 9.05 GiB (92%)
Title : PbK
Writing library : x264 core 148 r2692+46 0f71ed5 7mod [[email protected] X86_64]
Encoding settings : cabac=1 / ref=5 / deblock=1:-3:-3 / analyse=0x3:0x113 / me=umh / subme=11 / psy=1 / fade_compensate=0.00 / psy_rd=1.00:0.00 / mixed_ref=1 / me_range=48 / chroma_me=1 / trellis=2 / 8x8dct=1 / cqm=0 / deadzone=11,6 / fast_pskip=0 / chroma_qp_offset=-2 / threads=24 / lookahead_threads=4 / sliced_threads=0 / nr=0 / decimate=0 / interlaced=0 / bluray_compat=0 / constrained_intra=0 / fgo=0 / bframes=8 / b_pyramid=2 / b_adapt=2 / b_bias=0 / direct=3 / weightb=1 / open_gop=0 / weightp=2 / keyint=250 / keyint_min=23 / scenecut=40 / intra_refresh=0 / rc_lookahead=60 / rc=crf / mbtree=0 / crf=19.3000 / qcomp=0.60 / qpmin=0:0:0 / qpmax=32:32:32 / qpstep=4 / vbv_maxrate=40000 / vbv_bufsize=30000 / crf_max=0.0 / nal_hrd=none / filler=0 / ip_ratio=1.30 / pb_ratio=1.20 / aq=4:0.80 / aq-sensitivity=10.00 / aq-factor=1.00:1.00:1.00 / aq2=0 / aq3=0
Language : English
Default : Yes
Forced : No
Color range : Limited
Color primaries : BT.709
Transfer characteristics : BT.709
Matrix coefficients : BT.709
Audio #1
ID : 2
Format : AC-3
Format/Info : Audio Coding 3
Commercial name : Dolby Digital
Codec ID : A_AC3
Duration : 2 h 14 min
Bit rate mode : Constant
Bit rate : 384 kb/s
Channel(s) : 6 channels
Channel layout : L R C LFE Ls Rs
Sampling rate : 48.0 kHz
Frame rate : 31.250 FPS (1536 SPF)
Bit depth : 16 bits
Compression mode : Lossy
Stream size : 370 MiB (4%)
Language : Russian
Service kind : Complete Main
Default : Yes
Forced : Yes
Audio #2
ID : 3
Format : AC-3
Format/Info : Audio Coding 3
Commercial name : Dolby Digital
Codec ID : A_AC3
Duration : 2 h 14 min
Bit rate mode : Constant
Bit rate : 448 kb/s
Channel(s) : 6 channels
Channel layout : L R C LFE Ls Rs
Sampling rate : 48.0 kHz
Frame rate : 31.250 FPS (1536 SPF)
Bit depth : 16 bits
Compression mode : Lossy
Stream size : 432 MiB (4%)
Title : English
Language : English
Service kind : Complete Main
Default : No
Forced : No
Text
ID : 4
Format : UTF-8
Codec ID : S_TEXT/UTF8
Codec ID/Info : UTF-8 Plain Text
Duration : 2 h 8 min
Bit rate : 84 b/s
Count of elements : 2688
Stream size : 79.8 KiB (0%)
Language : English
Default : No
Forced : No
Menu
00:00:00.000 : en:00:00:00.000
00:04:10.250 : en:00:04:10.250
00:13:54.876 : en:00:13:54.876
00:23:16.604 : en:00:23:16.604
00:27:56.508 : en:00:27:56.508
00:36:10.668 : en:00:36:10.668
00:43:21.557 : en:00:43:21.557
00:48:30.616 : en:00:48:30.616
00:54:58.629 : en:00:54:58.629
00:59:48.543 : en:00:59:48.543
01:07:04.771 : en:01:07:04.771
01:16:37.802 : en:01:16:37.802
01:22:20.394 : en:01:22:20.394
01:29:38.123 : en:01:29:38.123
01:39:10.653 : en:01:39:10.653
01:48:27.042 : en:01:48:27.042
01:56:05.584 : en:01:56:05.584
02:00:43.945 : en:02:00:43.945
02:03:57.430 : en:02:03:57.430
02:09:03.569 : en:02:09:03.569-
-

Скриншоты

--
-Релиз от: -
[free-tor.info].t17964.torrent 
Торрент: Зарегистрирован [ 2018-11-29 12:07 ] · 68CC51CC940897C54DD027EAF008F42EB5C50759

Скачать .torrent

Скачать .torrent

99 KB

Статус: проверено
.torrent скачан: 6 раз
Размер: 9,83 GB
Правила
Похожие темы

[Профиль] [ЛС]
Показать сообщения:    
Ответить на тему

Текущее время: 17-Июл 03:03

Часовой пояс: UTC + 4



Вы не можете начинать темы
Вы не можете отвечать на сообщения
Вы не можете редактировать свои сообщения
Вы не можете удалять свои сообщения
Вы не можете голосовать в опросах
Вы не можете прикреплять файлы к сообщениям
Вы можете скачивать файлы
Анализ веб сайтов Яндекс.Метрика