Операция «Финал» / Operation Finale (Крис Вайц) [2018, триллер, драма, биография, история, BDRip 1080p | Пифагор]

Ответить на тему
Статистика раздачи [Обновить пиров]
Размер:  13,52 GB   |    Зарегистрирован:  7 месяцев 8 дней   |    .torrent скачан:  12 раз
Сидов:  93  [  0 KB/s  ]   Личеров:  20  [  0 KB/s  ]   Подробная статистика пиров
 
   
 
 
Автор Сообщение

Skorp10n ®

Оффлайн

 Активный раздающий 1 Активный раздающий 2
 Активный релизер 1000 Активный релизер 1500 Активный релизер 2000 Активный релизер 250 Активный релизер 3000 Активный релизер 500 Активный релизер 5000 Активный релизер Фильмов (1000) Активный релизер Фильмов (300) Активный релизер Фильмов (600) Активный Форумчанин 1 Активный Форумчанин 2 Активный Форумчанин 3 Активный Форумчанин 4 Друг трекера Карма 1000 Карма 1500 Карма 3000 Карма 500 Меценат Ни дня без новостей Орденосец 1 степени Орденосец 2 степени Орденосец 3 степени Почетный орденосец Почетный репортер С Новым 2016 Годом! С Новым 2017 Годом! С Новым 2018 Годом! С Новым 2019 Годом! Супер Мега Контер Квейк ТОП-10

Пол: Мужской

Стаж: 3 года 11 месяцев

Наличие запрета:

Сообщений: 10847

Откуда: Free-Tor.com

Отдача: не определено

Загрузка: не определено

Нажми

Создавать темы 07-Дек-2018 14:34

[Цитировать]

«After World War II, Hitler's deadliest lieutenant escaped»-Информация о фильме- Название: Операция «Финал»
Оригинальное название: Operation Finale
Год выхода: 2018
Жанр: Триллер, драма, биография, история
Режиссер: Крис Вайц
В ролях: Оскар Айзек, Бен Кингсли, Мелани Лоран, Лайор Раз, Ник Кролл, Майкл Аронов, Охад Кноллер, Грег Хилл, Торбен Либрехт-О фильме:-Через 15 лет после окончания Второй мировой войны создаётся команда спецагентов, чтобы выследить Адольфа Эйхмана — печально известного сотрудника гестапо, отвечавшего за «окончательное решение еврейского вопроса».- -Страна: США
Студия: Automatik Entertainment, Metro-Goldwyn-Mayer (MGM)
Продолжительность: 02:02:39
Перевод: Профессиональный (полное дублирование) | Пифагор-Файл-Качество: BDRip 1080p
Формат: MKV
Кодек: MPEG-4 AVC
Видео: 1920x1038 (1,85:1), 23,976 fps, MPEG-4 AVC ~ 13.6 Mbps avg, 0.285 bit/pixel
Аудио: E-AC3, 48 kHz, 6 ch, ~640.00 kbps avg | русский | Пифагор
Аудио: DTS, 48 kHz, 6 ch, ~1509.00 kbps avg | английский | Оригинал-Субтитры: Русские (Forced, full), английские (Full, SDH)-Семпл-

Инфо-файл

-Общее
Уникальный идентификатор : 66857762593153500053647247288825913421 (0x324C5631ECB19CB7B7CF2E9A7581A04D)
Полное имя : Operation.Finale.2018.1080p.BluRay.DD5.1.x264-SbR.mkv
Формат : Matroska
Версия формата : Version 4 / Version 2
Размер файла : 13,5 Гбайт
Продолжительность : 2 ч. 3 м.
Общий поток : 15,7 Мбит/сек
Название фильма : Operation.Finale.2018.1080p.BluRay.DD5.1.x264-SbR
Дата кодирования : UTC 2018-12-06 19:11:59
Программа кодирования : mkvmerge v27.0.0 ('Metropolis') 64-bit
Библиотека кодирования : libebml v1.3.6 + libmatroska v1.4.9
Видео
Идентификатор : 1
Формат : AVC
Формат/Информация : Advanced Video Codec
Профиль формата : [email protected]
Настройки формата : CABAC / 4 Ref Frames
Параметр CABAC формата : Да
Параметр RefFrames формата : 4 кадра
Идентификатор кодека : V_MPEG4/ISO/AVC
Продолжительность : 2 ч. 2 м.
Битрейт : 13,6 Мбит/сек
Ширина : 1920 пикселей
Высота : 1038 пикселей
Соотношение сторон : 1,85:1
Режим частоты кадров : Постоянный
Частота кадров : 23,976 (24000/1001) кадра/сек
Цветовое пространство : YUV
Субдискретизация насыщенности : 4:2:0
Битовая глубина : 8 бит
Тип развёртки : Прогрессивная
Бит/(Пиксели*Кадры) : 0.285
Размер потока : 11,7 Гбайт (86%)
Заголовок : Operation.Finale.2018.1080p.BluRay.DD5.1.x264-SbR
Библиотека кодирования : x264 core 152 r2851kMod ba24899
Настройки программы : cabac=1 / ref=4 / deblock=1:-3:-3 / analyse=0x3:0x133 / me=umh / subme=11 / psy=1 / fade_compensate=0.00 / psy_rd=1.03:0.00 / mixed_ref=1 / me_range=32 / chroma_me=1 / trellis=2 / 8x8dct=1 / cqm=0 / deadzone=21,11 / fast_pskip=0 / chroma_qp_offset=-2 / threads=6 / lookahead_threads=1 / sliced_threads=0 / nr=0 / decimate=1 / interlaced=0 / bluray_compat=0 / constrained_intra=0 / bframes=8 / b_pyramid=2 / b_adapt=2 / b_bias=0 / direct=3 / weightb=1 / open_gop=0 / weightp=2 / keyint=250 / keyint_min=23 / scenecut=40 / intra_refresh=0 / rc=crf / mbtree=0 / crf=15.0000 / qcomp=0.60 / qpmin=0 / qpmax=69 / qpstep=4 / ip_ratio=1.30 / pb_ratio=1.20 / aq=1:0.70
Язык : English
Default : Да
Forced : Нет
Цветовой диапазон : Limited
Коэффициенты матрицы : BT.709
Аудио #1
Идентификатор : 2
Формат : E-AC-3
Формат/Информация : Enhanced Audio Coding 3
Идентификатор кодека : A_EAC3
Продолжительность : 2 ч. 3 м.
Вид битрейта : Постоянный
Битрейт : 640 Кбит/сек
Каналы : 6 каналов
Расположение каналов : Front: L C R, Side: L R, LFE
Частота : 48,0 КГц
Частота кадров : 187,500 кадров/сек (256 SPF)
Метод сжатия : С потерями
Размер потока : 565 Мбайт (4%)
Заголовок : Пифагор
Язык : Russian
Default : Да
Forced : Да
Аудио #2
Идентификатор : 3
Формат : DTS
Формат/Информация : Digital Theater Systems
Идентификатор кодека : A_DTS
Продолжительность : 2 ч. 2 м.
Вид битрейта : Постоянный
Битрейт : 1509 Кбит/сек
Каналы : 6 каналов
Расположение каналов : Front: L C R, Side: L R, LFE
Частота : 48,0 КГц
Частота кадров : 93,750 кадра/сек (512 SPF)
Битовая глубина : 24 бит
Метод сжатия : С потерями
Размер потока : 1,29 Гбайт (10%)
Заголовок : Original
Язык : English
Default : Нет
Forced : Нет
Текст #1
Идентификатор : 4
Формат : UTF-8
Идентификатор кодека : S_TEXT/UTF8
Идентификатор кодека/Информация : UTF-8 Plain Text
Продолжительность : 1 ч. 57 м.
Битрейт : 3 бит/сек
ElementCount : 62
Размер потока : 2,83 Кбайт (0%)
Заголовок : Forced
Язык : Russian
Default : Да
Forced : Да
Текст #2
Идентификатор : 5
Формат : UTF-8
Идентификатор кодека : S_TEXT/UTF8
Идентификатор кодека/Информация : UTF-8 Plain Text
Продолжительность : 2 ч. 1 м.
Битрейт : 70 бит/сек
ElementCount : 1333
Размер потока : 62,8 Кбайт (0%)
Заголовок : Full
Язык : Russian
Default : Нет
Forced : Нет
Текст #3
Идентификатор : 6
Формат : UTF-8
Идентификатор кодека : S_TEXT/UTF8
Идентификатор кодека/Информация : UTF-8 Plain Text
Продолжительность : 1 ч. 53 м.
Битрейт : 47 бит/сек
ElementCount : 1418
Размер потока : 39,2 Кбайт (0%)
Заголовок : Full
Язык : English
Default : Нет
Forced : Нет
Текст #4
Идентификатор : 7
Формат : UTF-8
Идентификатор кодека : S_TEXT/UTF8
Идентификатор кодека/Информация : UTF-8 Plain Text
Продолжительность : 1 ч. 53 м.
Битрейт : 53 бит/сек
ElementCount : 1606
Размер потока : 44,1 Кбайт (0%)
Заголовок : SDH
Язык : English
Default : Нет
Forced : Нет
Меню
00:00:00.000 : :00:00:00.000
00:07:11.056 : :00:07:11.056
00:13:22.176 : :00:13:22.176
00:17:19.538 : :00:17:19.538
00:24:44.149 : :00:24:44.149
00:31:32.599 : :00:31:32.599
00:35:49.647 : :00:35:49.647
00:40:26.799 : :00:40:26.799
00:47:11.579 : :00:47:11.579
00:54:53.916 : :00:54:53.916
01:00:20.700 : :01:00:20.700
01:08:55.840 : :01:08:55.840
01:14:11.238 : :01:14:11.238
01:22:05.796 : :01:22:05.796
01:27:13.562 : :01:27:13.562
01:34:38.131 : :01:34:38.131
01:41:02.265 : :01:41:02.265
01:45:13.349 : :01:45:13.349
01:51:04.157 : :01:51:04.157
01:58:06.621 : :01:58:06.621-
-

Скриншоты

--
-
[free-tor.info].t18134.torrent 
Торрент: Зарегистрирован [ 2018-12-07 14:34 ] · C4C3B7DD27B19CF81ABA5AF77AAD9CECE46B3B6C

Скачать .torrent

Скачать .torrent

35 KB

Статус: проверено
.torrent скачан: 12 раз
Размер: 13,52 GB
Правила
Похожие темы

[Профиль] [ЛС]
Показать сообщения:    
Ответить на тему

Текущее время: 16-Июл 04:49

Часовой пояс: UTC + 4



Вы не можете начинать темы
Вы не можете отвечать на сообщения
Вы не можете редактировать свои сообщения
Вы не можете удалять свои сообщения
Вы не можете голосовать в опросах
Вы не можете прикреплять файлы к сообщениям
Вы можете скачивать файлы
Анализ веб сайтов Яндекс.Метрика