Маугли / Маугли: Легенда джунглей / Mowgli (Энди Серкис) [2018, драма, комедия, приключения, семейный, экранизация, WEBRip 1080p | Пифагор]

Ответить на тему
Статистика раздачи [Обновить пиров]
Размер:  4,8 GB   |    Зарегистрирован:  7 месяцев 6 дней   |    .torrent скачан:  19 раз
Сидов:  848  [  0 KB/s  ]   Личеров:  26  [  0 KB/s  ]   Подробная статистика пиров
 
   
 
 
Автор Сообщение

Skorp10n ®

Оффлайн

 Активный раздающий 1 Активный раздающий 2
 Активный релизер 1000 Активный релизер 1500 Активный релизер 2000 Активный релизер 250 Активный релизер 3000 Активный релизер 500 Активный релизер 5000 Активный релизер Фильмов (1000) Активный релизер Фильмов (300) Активный релизер Фильмов (600) Активный Форумчанин 1 Активный Форумчанин 2 Активный Форумчанин 3 Активный Форумчанин 4 Друг трекера Карма 1000 Карма 1500 Карма 3000 Карма 500 Меценат Ни дня без новостей Орденосец 1 степени Орденосец 2 степени Орденосец 3 степени Почетный орденосец Почетный репортер С Новым 2016 Годом! С Новым 2017 Годом! С Новым 2018 Годом! С Новым 2019 Годом! Супер Мега Контер Квейк ТОП-10

Пол: Мужской

Стаж: 3 года 11 месяцев

Наличие запрета:

Сообщений: 10847

Откуда: Free-Tor.com

Отдача: не определено

Загрузка: не определено

Нажми

Создавать темы 09-Дек-2018 11:02

[Цитировать]

Информация о фильме- Название: Маугли / Маугли: Легенда джунглей
Оригинальное название: Mowgli
Год выхода: 2018
Жанр: Драма, комедия, приключения, семейный, экранизация
Режиссер: Энди Серкис
В ролях: Роэн Чанд, Кристиан Бэйл, Кейт Бланшетт, Бенедикт Камбербэтч, Наоми Харрис, Энди Серкис, Питер Муллан, Джек Рейнор, Эдди Марсан, Том Холландер-О фильме:-История о взрослении ребёнка по имени Маугли в волчьей стае в джунглях Индии. Он учится суровым законам джунглей под опекой медведя Балу и пантеры Багиры и принимает обитателей диких джунглей за своих. Всех, кроме одного: страшного тигра Шерхана. Но вскоре мальчику предстоит узнать, что в джунглях его могут поджидать куда большие опасности, чем тигр, и одна из них — его собственное человеческое происхождение, с которым ему придётся столкнуться лицом к лицу, словно с зубастым хищником.- -Страна: Великобритания, США
Студия: Imaginarium Productions, Warner Bros., Netflix
Продолжительность: 01:44:52
Перевод: Дублированный | Пифагор-Файл-Кодек: AVC
Качество: WEBRip 1080p | Mowgli.Legend.of.the.Jungle.2018.REPACK.1080p.WEBRip.X264-INFLATE
Видео: MPEG-4 AVC, 1920x800, 5656 Kбит/с, 23.976 кадр/с
Аудио #1: Русский ( АС3, 6ch, 448 Кбит/с, 48.0 KHz) Профессиональный (дублированный) Пифагор
Аудио #2: Английский ( АС3, 6ch, 448 Кбит/с, 48.0 KHz)
Субтитры: Русские, английские, испанские, французские, немецкие, португальские и т.д.-

MediaInfo

-Источник: Mowgli.Legend.of.the.Jungle.2018.REPACK.1080p.WEBRip.X264-INFLATE
General
Unique ID : 179442748140073500462836336968041569928 (0x86FF6A8BBAE0AA65B26983B2449D1E88)
Complete name : Mowgli.2018.WEBRip.1080p.mkv
Format : Matroska
Format version : Version 4 / Version 2
File size : 4.80 GiB
Duration : 1 h 44 min
Overall bit rate : 6 555 kb/s
Encoded date : UTC 2018-12-08 18:38:33
Writing application : mkvmerge v7.1.0 ('Good Love') 64bit built on Jul 27 2014 13:06:55
Writing library : libebml v1.3.0 + libmatroska v1.4.1
Video
ID : 1
Format : AVC
Format/Info : Advanced Video Codec
Format profile : [email protected]
Format settings, CABAC : Yes
Format settings, RefFrames : 5 frames
Codec ID : V_MPEG4/ISO/AVC
Duration : 1 h 44 min
Bit rate : 5 656 kb/s
Width : 1 920 pixels
Height : 800 pixels
Display aspect ratio : 2.40:1
Frame rate mode : Constant
Frame rate : 23.976 (24000/1001) FPS
Color space : YUV
Chroma subsampling : 4:2:0
Bit depth : 8 bits
Scan type : Progressive
Bits/(Pixel*Frame) : 0.154
Stream size : 4.14 GiB (86%)
Writing library : x264 core 157 r2935 545de2f
Encoding settings : cabac=1 / ref=5 / deblock=1:-2:-2 / analyse=0x3:0x113 / me=hex / subme=8 / psy=1 / psy_rd=1.00:0.00 / mixed_ref=1 / me_range=16 / chroma_me=1 / trellis=2 / 8x8dct=1 / cqm=0 / deadzone=21,11 / fast_pskip=1 / chroma_qp_offset=-2 / threads=12 / lookahead_threads=2 / sliced_threads=0 / nr=0 / decimate=1 / interlaced=0 / bluray_compat=0 / constrained_intra=0 / bframes=3 / b_pyramid=2 / b_adapt=1 / b_bias=0 / direct=3 / weightb=1 / open_gop=0 / weightp=2 / keyint=250 / keyint_min=23 / scenecut=40 / intra_refresh=0 / rc_lookahead=50 / rc=crf / mbtree=1 / crf=17.0 / qcomp=0.60 / qpmin=0 / qpmax=69 / qpstep=4 / ip_ratio=1.40 / aq=1:1.00
Language : English
Default : Yes
Forced : No
Audio #1
ID : 2
Format : AC-3
Format/Info : Audio Coding 3
Format settings, Endianness : Big
Codec ID : A_AC3
Duration : 1 h 44 min
Bit rate mode : Constant
Bit rate : 448 kb/s
Channel(s) : 6 channels
Channel positions : Front: L C R, Side: L R, LFE
Sampling rate : 48.0 kHz
Frame rate : 31.250 FPS (1536 SPF)
Bit depth : 16 bits
Compression mode : Lossy
Stream size : 336 MiB (7%)
Title : Dub | Пифагор
Language : Russian
Service kind : Complete Main
Default : Yes
Forced : No
Audio #2
ID : 3
Format : AC-3
Format/Info : Audio Coding 3
Format settings, Endianness : Big
Codec ID : A_AC3
Duration : 1 h 44 min
Bit rate mode : Constant
Bit rate : 448 kb/s
Channel(s) : 6 channels
Channel positions : Front: L C R, Side: L R, LFE
Sampling rate : 48.0 kHz
Frame rate : 31.250 FPS (1536 SPF)
Bit depth : 16 bits
Compression mode : Lossy
Stream size : 336 MiB (7%)
Title : Original
Language : English
Service kind : Complete Main
Default : No
Forced : No
Text #1
ID : 4
Format : UTF-8
Codec ID : S_TEXT/UTF8
Codec ID/Info : UTF-8 Plain Text
Duration : 33 min 34 s
Bit rate : 2 b/s
Count of elements : 13
Stream size : 532 Bytes (0%)
Title : Forced
Language : Russian
Default : Yes
Forced : Yes
Text #2
ID : 5
Format : UTF-8
Codec ID : S_TEXT/UTF8
Codec ID/Info : UTF-8 Plain Text
Duration : 1 h 36 min
Bit rate : 40 b/s
Count of elements : 677
Stream size : 28.7 KiB (0%)
Title : Full
Language : Russian
Default : No
Forced : No
Text #3
ID : 6
Format : UTF-8
Codec ID : S_TEXT/UTF8
Codec ID/Info : UTF-8 Plain Text
Duration : 7 min 38 s
Bit rate : 3 b/s
Count of elements : 10
Stream size : 229 Bytes (0%)
Title : Forced
Language : English
Default : No
Forced : No
Text #4
ID : 7
Format : UTF-8
Codec ID : S_TEXT/UTF8
Codec ID/Info : UTF-8 Plain Text
Duration : 1 h 43 min
Bit rate : 38 b/s
Count of elements : 1213
Stream size : 28.9 KiB (0%)
Title : SDH
Language : English
Default : No
Forced : No
Text #5
ID : 8
Format : UTF-8
Codec ID : S_TEXT/UTF8
Codec ID/Info : UTF-8 Plain Text
Duration : 1 h 34 min
Bit rate : 24 b/s
Count of elements : 693
Stream size : 17.3 KiB (0%)
Language : English
Default : No
Forced : No
Text #6
ID : 9
Format : UTF-8
Codec ID : S_TEXT/UTF8
Codec ID/Info : UTF-8 Plain Text
Duration : 1 h 36 min
Bit rate : 45 b/s
Count of elements : 706
Stream size : 32.3 KiB (0%)
Language : Arabic
Default : No
Forced : No
Text #7
ID : 10
Format : UTF-8
Codec ID : S_TEXT/UTF8
Codec ID/Info : UTF-8 Plain Text
Duration : 1 h 36 min
Bit rate : 24 b/s
Count of elements : 730
Stream size : 17.3 KiB (0%)
Language : Danish
Default : No
Forced : No
Text #8
ID : 11
Format : UTF-8
Codec ID : S_TEXT/UTF8
Codec ID/Info : UTF-8 Plain Text
Duration : 1 h 43 min
Bit rate : 24 b/s
Count of elements : 767
Stream size : 18.9 KiB (0%)
Language : German
Default : No
Forced : No
Text #9
ID : 12
Format : UTF-8
Codec ID : S_TEXT/UTF8
Codec ID/Info : UTF-8 Plain Text
Duration : 1 h 36 min
Bit rate : 40 b/s
Count of elements : 725
Stream size : 28.6 KiB (0%)
Language : Greek
Default : No
Forced : No
Text #10
ID : 13
Format : UTF-8
Codec ID : S_TEXT/UTF8
Codec ID/Info : UTF-8 Plain Text
Duration : 1 h 35 min
Bit rate : 23 b/s
Count of elements : 723
Stream size : 16.3 KiB (0%)
Language : Spanish
Default : No
Forced : No
Text #11
ID : 14
Format : UTF-8
Codec ID : S_TEXT/UTF8
Codec ID/Info : UTF-8 Plain Text
Duration : 1 h 35 min
Bit rate : 24 b/s
Count of elements : 705
Stream size : 17.2 KiB (0%)
Title : European
Language : Spanish
Default : No
Forced : No
Text #12
ID : 15
Format : UTF-8
Codec ID : S_TEXT/UTF8
Codec ID/Info : UTF-8 Plain Text
Duration : 1 h 36 min
Bit rate : 24 b/s
Count of elements : 630
Stream size : 17.2 KiB (0%)
Language : Finnish
Default : No
Forced : No
Text #13
ID : 16
Format : UTF-8
Codec ID : S_TEXT/UTF8
Codec ID/Info : UTF-8 Plain Text
Duration : 1 h 36 min
Bit rate : 27 b/s
Count of elements : 704
Stream size : 19.4 KiB (0%)
Language : French
Default : No
Forced : No
Text #14
ID : 17
Format : UTF-8
Codec ID : S_TEXT/UTF8
Codec ID/Info : UTF-8 Plain Text
Duration : 1 h 43 min
Bit rate : 26 b/s
Count of elements : 816
Stream size : 19.7 KiB (0%)
Language : Indonesian
Default : No
Forced : No
Text #15
ID : 18
Format : UTF-8
Codec ID : S_TEXT/UTF8
Codec ID/Info : UTF-8 Plain Text
Duration : 1 h 36 min
Bit rate : 24 b/s
Count of elements : 729
Stream size : 17.5 KiB (0%)
Language : Italian
Default : No
Forced : No
Text #16
ID : 19
Format : UTF-8
Codec ID : S_TEXT/UTF8
Codec ID/Info : UTF-8 Plain Text
Duration : 1 h 36 min
Bit rate : 23 b/s
Count of elements : 734
Stream size : 16.6 KiB (0%)
Language : Japanese
Default : No
Forced : No
Text #17
ID : 20
Format : UTF-8
Codec ID : S_TEXT/UTF8
Codec ID/Info : UTF-8 Plain Text
Duration : 1 h 35 min
Bit rate : 27 b/s
Count of elements : 731
Stream size : 19.1 KiB (0%)
Language : Korean
Default : No
Forced : No
Text #18
ID : 21
Format : UTF-8
Codec ID : S_TEXT/UTF8
Codec ID/Info : UTF-8 Plain Text
Duration : 1 h 43 min
Bit rate : 25 b/s
Count of elements : 813
Stream size : 19.5 KiB (0%)
Language : Norwegian Bokmal
Default : No
Forced : No
Text #19
ID : 22
Format : UTF-8
Codec ID : S_TEXT/UTF8
Codec ID/Info : UTF-8 Plain Text
Duration : 1 h 43 min
Bit rate : 25 b/s
Count of elements : 800
Stream size : 19.3 KiB (0%)
Language : Dutch
Default : No
Forced : No
Text #20
ID : 23
Format : UTF-8
Codec ID : S_TEXT/UTF8
Codec ID/Info : UTF-8 Plain Text
Duration : 1 h 36 min
Bit rate : 22 b/s
Count of elements : 626
Stream size : 16.1 KiB (0%)
Language : Polish
Default : No
Forced : No
Text #21
ID : 24
Format : UTF-8
Codec ID : S_TEXT/UTF8
Codec ID/Info : UTF-8 Plain Text
Duration : 1 h 36 min
Bit rate : 24 b/s
Count of elements : 740
Stream size : 17.6 KiB (0%)
Language : Portuguese
Default : No
Forced : No
Text #22
ID : 25
Format : UTF-8
Codec ID : S_TEXT/UTF8
Codec ID/Info : UTF-8 Plain Text
Duration : 1 h 36 min
Bit rate : 23 b/s
Count of elements : 739
Stream size : 17.0 KiB (0%)
Title : Brazilian
Language : Portuguese
Default : No
Forced : No
Text #23
ID : 26
Format : UTF-8
Codec ID : S_TEXT/UTF8
Codec ID/Info : UTF-8 Plain Text
Duration : 1 h 36 min
Bit rate : 24 b/s
Count of elements : 726
Stream size : 17.5 KiB (0%)
Language : Romanian
Default : No
Forced : No
Text #24
ID : 27
Format : UTF-8
Codec ID : S_TEXT/UTF8
Codec ID/Info : UTF-8 Plain Text
Duration : 1 h 36 min
Bit rate : 24 b/s
Count of elements : 642
Stream size : 17.4 KiB (0%)
Language : Swedish
Default : No
Forced : No
Text #25
ID : 28
Format : UTF-8
Codec ID : S_TEXT/UTF8
Codec ID/Info : UTF-8 Plain Text
Duration : 1 h 35 min
Bit rate : 26 b/s
Count of elements : 740
Stream size : 18.3 KiB (0%)
Language : Turkish
Default : No
Forced : No
Text #26
ID : 29
Format : UTF-8
Codec ID : S_TEXT/UTF8
Codec ID/Info : UTF-8 Plain Text
Duration : 1 h 36 min
Bit rate : 20 b/s
Count of elements : 732
Stream size : 14.6 KiB (0%)
Title : Simplified
Language : Chinese
Default : No
Forced : No
Text #27
ID : 30
Format : UTF-8
Codec ID : S_TEXT/UTF8
Codec ID/Info : UTF-8 Plain Text
Duration : 1 h 36 min
Bit rate : 21 b/s
Count of elements : 741
Stream size : 15.3 KiB (0%)
Title : Traditional
Language : Chinese
Default : No
Forced : No-
-

Скриншоты

--
-
[free-tor.info].t18172.torrent 
Торрент: Зарегистрирован [ 2018-12-09 11:02 ] · 9A351A5BFD8A4CE586824EECF371BA5767E198CE

Скачать .torrent

Скачать .torrent

13 KB

Статус: проверено
.torrent скачан: 19 раз
Размер: 4,8 GB
Правила
Volodymyr(10-Дек-18)
Похожие темы

[Профиль] [ЛС]
Показать сообщения:    
Ответить на тему

Текущее время: 16-Июл 03:55

Часовой пояс: UTC + 4



Вы не можете начинать темы
Вы не можете отвечать на сообщения
Вы не можете редактировать свои сообщения
Вы не можете удалять свои сообщения
Вы не можете голосовать в опросах
Вы не можете прикреплять файлы к сообщениям
Вы можете скачивать файлы
Анализ веб сайтов Яндекс.Метрика