Хищник / The Predator (Шейн Блэк) [2018, ужасы, фантастика, боевик, триллер, приключения, BDRip 1080p от селезень | D, P, A | Лицензия]

Ответить на тему
Статистика раздачи [Обновить пиров]
Размер:  14,43 GB   |    Зарегистрирован:  6 месяцев 23 дня   |    .torrent скачан:  16 раз
Сидов:  339  [  0 KB/s  ]   Личеров:  28  [  0 KB/s  ]   Подробная статистика пиров
 
   
 
 
Автор Сообщение

Skorp10n ®

Оффлайн

 Активный раздающий 1 Активный раздающий 2
 Активный релизер 1000 Активный релизер 1500 Активный релизер 2000 Активный релизер 250 Активный релизер 3000 Активный релизер 500 Активный релизер 5000 Активный релизер Фильмов (1000) Активный релизер Фильмов (300) Активный релизер Фильмов (600) Активный Форумчанин 1 Активный Форумчанин 2 Активный Форумчанин 3 Активный Форумчанин 4 Друг трекера Карма 1000 Карма 1500 Карма 3000 Карма 500 Меценат Ни дня без новостей Орденосец 1 степени Орденосец 2 степени Орденосец 3 степени Почетный орденосец Почетный репортер С Новым 2016 Годом! С Новым 2017 Годом! С Новым 2018 Годом! С Новым 2019 Годом! Супер Мега Контер Квейк ТОП-10

Пол: Мужской

Стаж: 3 года 11 месяцев

Наличие запрета:

Сообщений: 10847

Откуда: Free-Tor.com

Отдача: не определено

Загрузка: не определено

Нажми

Создавать темы 09-Дек-2018 11:25

[Цитировать]

Информация о фильме- Название: Хищник
Оригинальное название: The Predator
Год выхода: 2018
Жанр: Ужасы, фантастика, боевик, триллер, приключения
Режиссер: Шейн Блэк
В ролях: Бойд Холбрук, Треванте Роудс, Джейкоб Трамбле, Кигэн-Майкл Ки, Оливия Манн, Стерлинг К. Браун, Томас Джейн, Элфи Оуэн-Аллен, Августо Агилера, Джейк Бьюзи- -О фильме: Главный герой, бывший морпех, обнаруживает злобную инопланетную расу на Земле, но никто не верит ему, что эти твари существуют. Его сын-аутист, которого все обижают в школе, становится ключевой фигурой в схватке с Хищниками, поскольку мальчик умеет невероятно быстро учить языки и, судя по всему, сможет понять пришельцев.-Страна: США, Канада
Студия: Twentieth Century Fox, Davis Entertainment, TSG Entertainment
Продолжительность: 01:46:56
Перевод(ы):
#1: Дублированный | iTunes

#2: Профессиональный многоголосый | HDRezka Studio
#3: Авторский | М. Яроцкий-Качество: BDRip 1080p
Видео: MPEG-4 AVC, 1920x804, 14 Mbit/s, 23.976 fps
Звук:
Аудио #01: 48 kHz, DTS, 5.1, 768 Kbps | Дублированный | RUS |
Аудио #02: 48 kHz, AC3, 5.1, 448 Kbps | Дублированный | RUS |
Аудио #03: 48 kHz, AC3, 2.0, 192 Kbps | Профессиональный многоголосый | RUS |
Аудио #04: 48 kHz, DTS, 5.1, 1510 Kbps | Авторский | RUS |
Аудио #05: 48 kHz, AC3, 5.1, 640 Kbps | Авторский | RUS |
Аудио #06: 48 kHz, AC3, 5.1, 448 Kbps | Дублированный | UKR |
Аудио #07: 48 kHz, DTS, 5.1, 1510 Kbps | Оригинал | ENG |
Субтитры: Русские (Forced, full), английские-

Скриншоты

--
-

MI

-General
Unique ID : 272149652668942210599821821481200417672 (0xCCBE1DD5C295573DF5595CB687F87B88)
Complete name : D:Video111The.Predator.2018.D.MVO.AVO.BDRip.1080p.seleZen.mkv
Format : Matroska
Format version : Version 4
File size : 14.4 GiB
Duration : 1 h 46 min
Overall bit rate : 19.3 Mb/s
Movie name : The Predator 2018 from селезень
Encoded date : UTC 2018-12-24 09:28:05
Writing application : mkvmerge v29.0.0 ('Like It Or Not') 64-bit
Writing library : libebml v1.3.6 + libmatroska v1.4.9
Video
ID : 1
Format : AVC
Format/Info : Advanced Video Codec
Format profile : [email protected]
Format settings : CABAC / 4 Ref Frames
Format settings, CABAC : Yes
Format settings, ReFrames : 4 frames
Codec ID : V_MPEG4/ISO/AVC
Duration : 1 h 46 min
Bit rate : 14.0 Mb/s
Width : 1 920 pixels
Height : 804 pixels
Display aspect ratio : 2.40:1
Frame rate mode : Constant
Frame rate : 23.976 (24000/1001) FPS
Color space : YUV
Chroma subsampling : 4:2:0
Bit depth : 8 bits
Scan type : Progressive
Bits/(Pixel*Frame) : 0.378
Stream size : 10.3 GiB (71%)
Title : CHD
Writing library : x264 core 155 r2867+74 66b5600 t_mod_Custom_2 [[email protected] X86_64]
Encoding settings : cabac=1 / ref=4 / deblock=1:-3:-3 / analyse=0x3:0x133 / me=umh / subme=11 / psy=1 / fade_compensate=0.00 / psy_rd=0.95:0.10 / mixed_ref=1 / me_range=48 / chroma_me=1 / trellis=2 / 8x8dct=1 / cqm=0 / deadzone=21,11 / fast_pskip=0 / chroma_qp_offset=-4 / threads=12 / lookahead_threads=2 / sliced_threads=0 / nr=0 / decimate=1 / interlaced=0 / bluray_compat=0 / constrained_intra=0 / fgo=0 / bframes=8 / b_pyramid=2 / b_adapt=2 / b_bias=0 / direct=3 / weightb=1 / open_gop=0 / weightp=2 / keyint=250 / keyint_min=23 / scenecut=40 / intra_refresh=0 / rc_lookahead=30 / rc=2pass / mbtree=0 / bitrate=14000 / ratetol=1.0 / qcomp=0.70 / qpmin=0:0:0 / qpmax=69:69:69 / qpstep=4 / cplxblur=20.0 / qblur=0.5 / vbv_maxrate=35000 / vbv_bufsize=35000 / nal_hrd=none / filler=0 / ip_ratio=1.40 / pb_ratio=1.30 / aq=3:1.00 / aq-sensitivity=10.00 / aq-factor=1.00:1.00:1.00 / aq2=0 / aq3=2:[0.50:0.50]:[0.50:0.50]:[0.50:0.50]:[0.50:0.50] / aq3-sensitivity=10.00 / aq3-factor=[1.00:1.00]:[1.00:1.00]:[1.00:1.00] / aq3-boundary=192:64:24
Language : English
Default : Yes
Forced : No
Audio #1
ID : 2
Format : DTS
Format/Info : Digital Theater Systems
Codec ID : A_DTS
Duration : 1 h 46 min
Bit rate mode : Constant
Bit rate : 768 kb/s
Channel(s) : 6 channels
Channel layout : C L R Ls Rs LFE
Sampling rate : 48.0 kHz
Frame rate : 93.750 FPS (512 SPF)
Bit depth : 24 bits
Compression mode : Lossy
Stream size : 587 MiB (4%)
Title : Dub [License]
Language : Russian
Default : Yes
Forced : Yes
Audio #2
ID : 3
Format : AC-3
Format/Info : Audio Coding 3
Commercial name : Dolby Digital
Codec ID : A_AC3
Duration : 1 h 46 min
Bit rate mode : Constant
Bit rate : 448 kb/s
Channel(s) : 6 channels
Channel layout : L R C LFE Ls Rs
Sampling rate : 48.0 kHz
Frame rate : 31.250 FPS (1536 SPF)
Bit depth : 16 bits
Compression mode : Lossy
Stream size : 343 MiB (2%)
Title : Dub [License]
Language : Russian
Service kind : Complete Main
Default : No
Forced : No
Audio #3
ID : 4
Format : DTS ES
Format/Info : Digital Theater Systems
Commercial name : DTS-ES Matrix
Codec ID : A_DTS
Duration : 1 h 46 min
Bit rate mode : Constant
Bit rate : 1 509 kb/s
Channel(s) : 6 channels
Channel(s)_Original : 7 channels
Channel layout : C L R Ls Rs Cb LFE
Sampling rate : 48.0 kHz
Frame rate : 93.750 FPS (512 SPF)
Bit depth : 24 bits
Compression mode : Lossy
Stream size : 1.13 GiB (8%)
Title : AVO [kyberpunk]
Language : Russian
Default : No
Forced : No
Audio #4
ID : 5
Format : AC-3
Format/Info : Audio Coding 3
Commercial name : Dolby Digital
Codec ID : A_AC3
Duration : 1 h 46 min
Bit rate mode : Constant
Bit rate : 640 kb/s
Channel(s) : 6 channels
Channel layout : L R C LFE Ls Rs
Sampling rate : 48.0 kHz
Frame rate : 31.250 FPS (1536 SPF)
Bit depth : 16 bits
Compression mode : Lossy
Stream size : 490 MiB (3%)
Title : AVO [kyberpunk]
Language : Russian
Service kind : Complete Main
Default : No
Forced : No
Audio #5
ID : 6
Format : AC-3
Format/Info : Audio Coding 3
Commercial name : Dolby Digital
Codec ID : A_AC3
Duration : 1 h 46 min
Bit rate mode : Constant
Bit rate : 192 kb/s
Channel(s) : 2 channels
Channel layout : L R
Sampling rate : 48.0 kHz
Frame rate : 31.250 FPS (1536 SPF)
Bit depth : 16 bits
Compression mode : Lossy
Stream size : 147 MiB (1%)
Title : MVO [HDRezka Studio]
Language : Russian
Service kind : Complete Main
Default : No
Forced : No
Audio #6
ID : 7
Format : AC-3
Format/Info : Audio Coding 3
Commercial name : Dolby Digital
Codec ID : A_AC3
Duration : 1 h 46 min
Bit rate mode : Constant
Bit rate : 448 kb/s
Channel(s) : 6 channels
Channel layout : L R C LFE Ls Rs
Sampling rate : 48.0 kHz
Frame rate : 31.250 FPS (1536 SPF)
Bit depth : 16 bits
Compression mode : Lossy
Stream size : 343 MiB (2%)
Title : License
Language : Ukrainian
Service kind : Complete Main
Default : No
Forced : No
Audio #7
ID : 8
Format : DTS ES
Format/Info : Digital Theater Systems
Commercial name : DTS-ES Matrix
Codec ID : A_DTS
Duration : 1 h 46 min
Bit rate mode : Constant
Bit rate : 1 509 kb/s
Channel(s) : 6 channels
Channel(s)_Original : 7 channels
Channel layout : C L R Ls Rs Cb LFE
Sampling rate : 48.0 kHz
Frame rate : 93.750 FPS (512 SPF)
Bit depth : 24 bits
Compression mode : Lossy
Stream size : 1.13 GiB (8%)
Title : Original
Language : English
Default : No
Forced : No
Text #1
ID : 9
Format : UTF-8
Codec ID : S_TEXT/UTF8
Codec ID/Info : UTF-8 Plain Text
Duration : 1 h 45 min
Bit rate : 1 b/s
Count of elements : 22
Stream size : 1.02 KiB (0%)
Title : Forced
Language : Russian
Default : Yes
Forced : Yes
Text #2
ID : 10
Format : UTF-8
Codec ID : S_TEXT/UTF8
Codec ID/Info : UTF-8 Plain Text
Duration : 1 h 45 min
Bit rate : 70 b/s
Count of elements : 1270
Stream size : 54.4 KiB (0%)
Title : Full
Language : Russian
Default : No
Forced : No
Text #3
ID : 11
Format : UTF-8
Codec ID : S_TEXT/UTF8
Codec ID/Info : UTF-8 Plain Text
Duration : 1 h 38 min
Bit rate : 49 b/s
Count of elements : 1366
Stream size : 35.6 KiB (0%)
Language : English
Default : No
Forced : No
Menu
00:00:00.000 : :绗?01 绔?
00:02:00.704 : :绗?02 绔?
00:08:32.929 : :绗?03 绔?
00:09:45.335 : :绗?04 绔?
00:13:47.660 : :绗?05 绔?
00:16:09.177 : :绗?06 绔?
00:17:36.430 : :绗?07 绔?
00:20:21.470 : :绗?08 绔?
00:25:01.959 : :绗?09 绔?
00:27:36.280 : :绗?10 绔?
00:31:10.077 : :绗?11 绔?
00:36:23.348 : :绗?12 绔?
00:38:00.653 : :绗?13 绔?
00:39:42.547 : :绗?14 绔?
00:44:34.714 : :绗?15 绔?
00:49:15.911 : :绗?16 绔?
00:53:18.612 : :绗?17 绔?
00:58:34.511 : :绗?18 绔?
00:59:58.512 : :绗?19 绔?
01:03:16.292 : :绗?20 绔?
01:06:36.826 : :绗?21 绔?
01:09:51.020 : :绗?22 绔?
01:12:26.634 : :绗?23 绔?
01:15:55.634 : :绗?24 绔?
01:18:52.686 : :绗?25 绔?
01:21:24.630 : :绗?26 绔?
01:23:08.942 : :绗?27 绔?
01:27:08.807 : :绗?28 绔?
01:30:55.241 : :绗?29 绔?
01:32:14.821 : :绗?30 绔?
01:35:08.411 : :绗?31 绔?
01:40:00.203 : :绗?32 绔?-
-Релиз от: -
[free-tor.info].t18177.torrent 
Торрент: Зарегистрирован [ 2018-12-24 20:03 ] · 41DC800FFD9EC99F332D0EA2C2089E3EF6C784DC

Скачать .torrent

Скачать .torrent

20 KB

Статус: проверено
.torrent скачан: 16 раз
Размер: 14,43 GB
Правила
Volodymyr(10-Дек-18)
Похожие темы

[Профиль] [ЛС]
Показать сообщения:    
Ответить на тему

Текущее время: 17-Июл 03:11

Часовой пояс: UTC + 4



Вы не можете начинать темы
Вы не можете отвечать на сообщения
Вы не можете редактировать свои сообщения
Вы не можете удалять свои сообщения
Вы не можете голосовать в опросах
Вы не можете прикреплять файлы к сообщениям
Вы можете скачивать файлы
Анализ веб сайтов Яндекс.Метрика