Смертельная гонка 4: Вне анархии / Death Race 4: Beyond Anarchy (Дон Майкл Пол) [2018, боевик, BDRip 1080p | Лицензия]

Ответить на тему
Статистика раздачи [Обновить пиров]
Размер:  15,12 GB   |    Зарегистрирован:  7 месяцев 6 дней   |    .torrent скачан:  7 раз
Сидов:  78  [  0 KB/s  ]   Личеров:  9  [  0 KB/s  ]   Подробная статистика пиров
 
   
 
 
Автор Сообщение

Skorp10n ®

Оффлайн

 Активный раздающий 1 Активный раздающий 2
 Активный релизер 1000 Активный релизер 1500 Активный релизер 2000 Активный релизер 250 Активный релизер 3000 Активный релизер 500 Активный релизер 5000 Активный релизер Фильмов (1000) Активный релизер Фильмов (300) Активный релизер Фильмов (600) Активный Форумчанин 1 Активный Форумчанин 2 Активный Форумчанин 3 Активный Форумчанин 4 Друг трекера Карма 1000 Карма 1500 Карма 3000 Карма 500 Меценат Ни дня без новостей Орденосец 1 степени Орденосец 2 степени Орденосец 3 степени Почетный орденосец Почетный репортер С Новым 2016 Годом! С Новым 2017 Годом! С Новым 2018 Годом! С Новым 2019 Годом! Супер Мега Контер Квейк ТОП-10

Пол: Мужской

Стаж: 3 года 11 месяцев

Наличие запрета:

Сообщений: 10847

Откуда: Free-Tor.com

Отдача: не определено

Загрузка: не определено

Нажми

Создавать темы 09-Дек-2018 11:31

[Цитировать]

Информация о фильме- Название: Смертельная гонка 4: Вне анархии
Оригинальное название: Death Race 4: Beyond Anarchy
Год выхода: 2018
Жанр: Боевик
Режиссер: Дон Майкл Пол
В ролях: Зэк МакГоун, Фредерик Колер, Кристин Мардзано, Еннис Чун-Ян, Кэсси Клер, Люси Саутхолл, Дэнни Гловер, Дэнни Трехо, Николас Аарон, Камерон Джек-О фильме:-Продолжение известной серии фильмов про смертельную гонку.
Герой знакомится с агентом телеканала в местном баре, и тот предлагает ему участие в гонке по пустыне. Гонщиками становятся все отъявленные негодяи, насильники и убийцы. Когда герой отказывается, его семью берут в заложники, а самого насильно заставляют сесть за руль.- -Страна: США, Болгария
Студия: Capital Arts Entertainment, UFO International Productions, Universal 1440 Entertainment
Продолжительность: 01:50:58
Перевод: Профессиональный (полное дублирование) | Blu-ray EUR-Файл-Качество: BDRip 1080p
Формат: MKV
Кодек: MPEG-4 AVC
Видео: 1920x1080 (16:9), 23.976 fps, MPEG-4 AVC ~ 16,8 Мbps avg, 0.338 bit/pixel
Аудио: DTS, 48 kHz, 6 ch, ~768.00 kbps avg | русский | Blu-ray EUR
Аудио: AC3, 48 kHz, 6 ch, ~448.00 kbps avg | русский | Blu-ray EUR
Аудио: DTS, 48 kHz, 6 ch, ~1509.00 kbps avg | английский | Оригинал-Субтитры: Русские (Forced, full), английские (Full, SDH)-Семпл-

Инфо-файл

-Общее
Уникальный идентификатор : 62111242447470007826521209343201106184 (0x2EBA30AF106FDADC0439027B3825D908)
Полное имя : Death.Race.4.Beyond.Anarchy.2018.1080p.BluRay.DTS.x264.Rus.Eng.mkv
Формат : Matroska
Версия формата : Version 4 / Version 2
Размер файла : 15,1 Гбайт
Продолжительность : 1 ч. 50 м.
Общий поток : 19,5 Мбит/сек
Название фильма : Death Race 4 - Beyond Anarchy (2018)
Дата кодирования : UTC 2018-12-09 01:59:16
Программа кодирования : mkvmerge v27.0.0 ('Metropolis') 64-bit
Библиотека кодирования : libebml v1.3.6 + libmatroska v1.4.9
Видео
Идентификатор : 1
Формат : AVC
Формат/Информация : Advanced Video Codec
Профиль формата : [email protected]
Настройки формата : CABAC / 4 Ref Frames
Параметр CABAC формата : Да
Параметр RefFrames формата : 4 кадра
Идентификатор кодека : V_MPEG4/ISO/AVC
Продолжительность : 1 ч. 50 м.
Битрейт : 16,8 Мбит/сек
Ширина : 1920 пикселей
Высота : 1080 пикселей
Соотношение сторон : 16:9
Режим частоты кадров : Постоянный
Частота кадров : 23,976 (24000/1001) кадра/сек
Цветовое пространство : YUV
Субдискретизация насыщенности : 4:2:0
Битовая глубина : 8 бит
Тип развёртки : Прогрессивная
Бит/(Пиксели*Кадры) : 0.338
Размер потока : 13,0 Гбайт (86%)
Заголовок : Death.Race.4.Beyond.Anarchy.2018.1080p.BluRay.DTS.x264.Rus.Eng
Библиотека кодирования : x264 core 157 r0+2995 3a37e76 t_mod_Custom_2 [[email protected] X86_64]
Настройки программы : cabac=1 / ref=4 / deblock=1:-3:-3 / analyse=0x3:0x133 / me=umh / subme=11 / psy=1 / fade_compensate=0.00 / psy_rd=1.05:0.00 / mixed_ref=1 / me_range=48 / chroma_me=1 / trellis=2 / 8x8dct=1 / cqm=0 / deadzone=21,11 / fast_pskip=0 / chroma_qp_offset=-2 / threads=12 / lookahead_threads=3 / sliced_threads=0 / nr=0 / decimate=0 / interlaced=0 / bluray_compat=0 / constrained_intra=0 / fgo=0 / bframes=16 / b_pyramid=2 / b_adapt=2 / b_bias=0 / direct=3 / weightb=1 / open_gop=0 / weightp=2 / keyint=250 / keyint_min=24 / scenecut=40 / intra_refresh=0 / rc_lookahead=250 / rc=crf / mbtree=1 / crf=17.4000 / qcomp=0.65 / qpmin=0:0:0 / qpmax=69:69:69 / qpstep=4 / vbv_maxrate=62500 / vbv_bufsize=78125 / crf_max=0.0 / nal_hrd=none / filler=0 / ip_ratio=1.30 / aq=3:0.85 / aq-sensitivity=10.00 / aq-factor=1.00:1.00:1.00 / aq2=0 / aq3=0 / zones=155211,159643,crf=32
Default : Да
Forced : Нет
Аудио #1
Идентификатор : 2
Формат : DTS
Формат/Информация : Digital Theater Systems
Идентификатор кодека : A_DTS
Продолжительность : 1 ч. 50 м.
Вид битрейта : Постоянный
Битрейт : 768 Кбит/сек
Каналы : 6 каналов
Расположение каналов : Front: L C R, Side: L R, LFE
Частота : 48,0 КГц
Частота кадров : 93,750 кадра/сек (512 SPF)
Битовая глубина : 24 бит
Метод сжатия : С потерями
Размер потока : 610 Мбайт (4%)
Заголовок : Blu-ray EUR
Язык : Russian
Default : Да
Forced : Да
Аудио #2
Идентификатор : 3
Формат : AC-3
Формат/Информация : Audio Coding 3
Идентификатор кодека : A_AC3
Продолжительность : 1 ч. 50 м.
Вид битрейта : Постоянный
Битрейт : 448 Кбит/сек
Каналы : 6 каналов
Расположение каналов : Front: L C R, Side: L R, LFE
Частота : 48,0 КГц
Частота кадров : 31,250 кадров/сек (1536 SPF)
Битовая глубина : 16 бит
Метод сжатия : С потерями
Размер потока : 356 Мбайт (2%)
Заголовок : Blu-ray EUR
Язык : Russian
Default : Нет
Forced : Нет
Аудио #3
Идентификатор : 4
Формат : DTS
Формат/Информация : Digital Theater Systems
Идентификатор кодека : A_DTS
Продолжительность : 1 ч. 50 м.
Вид битрейта : Постоянный
Битрейт : 1509 Кбит/сек
Каналы : 6 каналов
Расположение каналов : Front: L C R, Side: L R, LFE
Частота : 48,0 КГц
Частота кадров : 93,750 кадра/сек (512 SPF)
Битовая глубина : 24 бит
Метод сжатия : С потерями
Размер потока : 1,17 Гбайт (8%)
Заголовок : Original
Язык : English
Default : Нет
Forced : Нет
Текст #1
Идентификатор : 5
Формат : UTF-8
Идентификатор кодека : S_TEXT/UTF8
Идентификатор кодека/Информация : UTF-8 Plain Text
Продолжительность : 1 ч. 45 м.
Битрейт : 0 бит/сек
ElementCount : 31
Размер потока : 649 байт (0%)
Заголовок : Forced
Язык : Russian
Default : Да
Forced : Да
Текст #2
Идентификатор : 6
Формат : UTF-8
Идентификатор кодека : S_TEXT/UTF8
Идентификатор кодека/Информация : UTF-8 Plain Text
Продолжительность : 1 ч. 50 м.
Битрейт : 51 бит/сек
ElementCount : 863
Размер потока : 41,6 Кбайт (0%)
Заголовок : Full
Язык : Russian
Default : Нет
Forced : Нет
Текст #3
Идентификатор : 7
Формат : UTF-8
Идентификатор кодека : S_TEXT/UTF8
Идентификатор кодека/Информация : UTF-8 Plain Text
Продолжительность : 1 ч. 48 м.
Битрейт : 43 бит/сек
ElementCount : 1079
Размер потока : 34,7 Кбайт (0%)
Заголовок : Full
Язык : English
Default : Нет
Forced : Нет
Текст #4
Идентификатор : 8
Формат : UTF-8
Идентификатор кодека : S_TEXT/UTF8
Идентификатор кодека/Информация : UTF-8 Plain Text
Продолжительность : 1 ч. 46 м.
Битрейт : 41 бит/сек
ElementCount : 1042
Размер потока : 32,5 Кбайт (0%)
Заголовок : SDH
Язык : English
Default : Нет
Forced : Нет
Меню
00:00:00.000 : en:Chapter 01
00:08:12.241 : en:Chapter 02
00:15:38.437 : en:Chapter 03
00:20:44.910 : en:Chapter 04
00:25:46.336 : en:Chapter 05
00:29:20.967 : en:Chapter 06
00:35:49.564 : en:Chapter 07
00:41:29.111 : en:Chapter 08
00:47:44.403 : en:Chapter 09
00:52:28.436 : en:Chapter 10
00:56:38.186 : en:Chapter 11
01:00:13.443 : en:Chapter 12
01:07:00.641 : en:Chapter 13
01:12:50.199 : en:Chapter 14
01:17:51.833 : en:Chapter 15
01:21:55.952 : en:Chapter 16
01:28:38.604 : en:Chapter 17
01:32:56.487 : en:Chapter 18
01:38:02.418 : en:Chapter 19
01:45:55.766 : en:Chapter 20-
-

Скриншоты

--
-
[free-tor.info].t18178.torrent 
Торрент: Зарегистрирован [ 2018-12-09 11:31 ] · F372E3EEBA3AEC58F43403F2538D6ADFD348968B

Скачать .torrent

Скачать .torrent

39 KB

Статус: проверено
.torrent скачан: 7 раз
Размер: 15,12 GB
Правила
Похожие темы

[Профиль] [ЛС]
Показать сообщения:    
Ответить на тему

Текущее время: 16-Июл 04:11

Часовой пояс: UTC + 4



Вы не можете начинать темы
Вы не можете отвечать на сообщения
Вы не можете редактировать свои сообщения
Вы не можете удалять свои сообщения
Вы не можете голосовать в опросах
Вы не можете прикреплять файлы к сообщениям
Вы можете скачивать файлы
Анализ веб сайтов Яндекс.Метрика