Между рядами / In den Gängen (Томас Штубер) [2018, драма, BDRip 1080p | iTunes]

Ответить на тему
Статистика раздачи [Обновить пиров]
Размер:  9,21 GB   |    Зарегистрирован:  6 месяцев 6 дней   |    .torrent скачан:  6 раз
Сидов:  82  [  0 KB/s  ]   Личеров:  7  [  0 KB/s  ]   Подробная статистика пиров
 
   
 
 
Автор Сообщение

Skorp10n ®

Онлайн

 Активный раздающий 1 Активный раздающий 2
 Активный релизер 1000 Активный релизер 1500 Активный релизер 2000 Активный релизер 250 Активный релизер 3000 Активный релизер 500 Активный релизер 5000 Активный релизер Фильмов (1000) Активный релизер Фильмов (300) Активный релизер Фильмов (600) Активный Форумчанин 1 Активный Форумчанин 2 Активный Форумчанин 3 Активный Форумчанин 4 Друг трекера Карма 1000 Карма 1500 Карма 3000 Карма 500 Меценат Ни дня без новостей Орденосец 1 степени Орденосец 2 степени Орденосец 3 степени Почетный орденосец Почетный репортер С Новым 2016 Годом! С Новым 2017 Годом! С Новым 2018 Годом! С Новым 2019 Годом! Супер Мега Контер Квейк ТОП-10

Пол: Мужской

Стаж: 3 года 10 месяцев

Наличие запрета:

Сообщений: 10762

Откуда: Free-Tor.com

Отдача: не определено

Загрузка: не определено

Нажми

Создавать темы 10-Дек-2018 14:54

[Цитировать]

Информация о фильме- Название: Между рядами
Оригинальное название: In den Gängen
Год выхода: 2018
Жанр: Драма
Режиссер: Томас Штубер
В ролях: Сандра Хюллер, Франц Роговский, Петер Курт, Хеннинг Пекер, Рамона Кюнце-Либнов, Матиас Бреннер, Герди Цинт, Клеменс Мейер, Андреас Леупольд, Майкл Спехт-О фильме:-Кристиан - новичок в дружной семье работников гипермаркета. В мире бесконечных стеллажей Кристиан встречает Марион из отдела сладостей. Между ними пробегает искра, а кофейный автомат превращается в место для робких встреч. Однако Марион замужем, а Кристиан слишком застенчив, чтобы сделать первый шаг.- -Страна: Германия
Студия: Sommerhaus Filmproduktionen, Departures Film, Arte
Продолжительность: 02:00:10
Перевод: Профессиональный (многоголосый, закадровый) | iTunes-Файл-Кодек: H.264
Качество: BDRip 1080p | iTunes
Видео: AVC/H.264, 1792x1080, ~9090 Кbps, 25 fps
Звук:
Аудио 1: AC3, 6 ch, 384 Kbps - Русский
Аудио 2: DTS, 6 ch, 1509 Kbps - Немецкий
Субтитры: Английские-

Mediainfo

-Общее
Уникальный идентификатор : 206237729621468288873303263866229114276 (0x9B27F1214757D6F0D2126F7CCFD045A4)
Полное имя : In den Gängen.2018.BDRip.1080p.W.mkv
Формат : Matroska
Версия формата : Version 4
Размер файла : 9,21 Гбайт
Продолжительность : 2 ч. 0 м.
Общий поток : 11,0 Мбит/сек
Название фильма : In den Gängen.2018.BDRip.1080p.W
Дата кодирования : UTC 2018-12-10 08:00:21
Программа кодирования : mkvmerge v23.0.0 ('The Bride Said No') 64-bit
Библиотека кодирования : libebml v1.3.6 + libmatroska v1.4.9
Видео
Идентификатор : 1
Формат : AVC
Формат/Информация : Advanced Video Codec
Профиль формата : [email protected]
Настройки формата : CABAC / 4 Ref Frames
Параметр CABAC формата : Да
Параметр RefFrames формата : 4 кадра
Идентификатор кодека : V_MPEG4/ISO/AVC
Продолжительность : 2 ч. 0 м.
Битрейт : 9090 Кбит/сек
Ширина : 1792 пикселя
Высота : 1080 пикселей
Соотношение сторон : 5:3
Режим частоты кадров : Постоянный
Частота кадров : 25,000 кадров/сек
Цветовое пространство : YUV
Субдискретизация насыщенности : 4:2:0
Битовая глубина : 8 бит
Тип развёртки : Прогрессивная
Бит/(Пиксели*Кадры) : 0.188
Размер потока : 7,62 Гбайт (83%)
Заголовок : rip by -=walledol=-
Библиотека кодирования : x264 core 157 r2935 545de2f
Настройки программы : cabac=1 / ref=4 / deblock=1:-3:-3 / analyse=0x3:0x133 / me=umh / subme=11 / psy=1 / psy_rd=1.00:0.01 / mixed_ref=1 / me_range=32 / chroma_me=1 / trellis=2 / 8x8dct=1 / cqm=0 / deadzone=21,11 / fast_pskip=0 / chroma_qp_offset=-3 / threads=12 / lookahead_threads=3 / sliced_threads=0 / nr=0 / decimate=1 / interlaced=0 / bluray_compat=0 / constrained_intra=0 / bframes=10 / b_pyramid=2 / b_adapt=2 / b_bias=0 / direct=3 / weightb=1 / open_gop=0 / weightp=2 / keyint=250 / keyint_min=25 / scenecut=40 / intra_refresh=0 / rc_lookahead=60 / rc=2pass / mbtree=0 / bitrate=9090 / ratetol=1.0 / qcomp=0.60 / qpmin=0 / qpmax=69 / qpstep=4 / cplxblur=20.0 / qblur=0.5 / vbv_maxrate=30000 / vbv_bufsize=33000 / nal_hrd=none / filler=0 / ip_ratio=1.40 / pb_ratio=1.30 / aq=3:0.85
Язык : German
Default : Да
Forced : Нет
Аудио #1
Идентификатор : 2
Формат : AC-3
Формат/Информация : Audio Coding 3
Коммерческое название : Dolby Digital
Идентификатор кодека : A_AC3
Продолжительность : 2 ч. 0 м.
Вид битрейта : Постоянный
Битрейт : 384 Кбит/сек
Каналы : 6 каналов
Channel layout : L R C LFE Ls Rs
Частота : 48,0 КГц
Частота кадров : 31,250 кадров/сек (1536 SPF)
Битовая глубина : 16 бит
Метод сжатия : С потерями
Размер потока : 330 Мбайт (3%)
Заголовок : MVO | iTunes
Язык : Russian
ServiceKind : Complete Main
Default : Да
Forced : Нет
Аудио #2
Идентификатор : 3
Формат : DTS
Формат/Информация : Digital Theater Systems
Идентификатор кодека : A_DTS
Продолжительность : 2 ч. 0 м.
Вид битрейта : Постоянный
Битрейт : 1509 Кбит/сек
Каналы : 6 каналов
Channel layout : C L R Ls Rs LFE
Частота : 48,0 КГц
Частота кадров : 93,750 кадра/сек (512 SPF)
Битовая глубина : 24 бит
Метод сжатия : С потерями
Размер потока : 1,27 Гбайт (14%)
Язык : German
Default : Нет
Forced : Нет
Текст
Идентификатор : 4
Формат : UTF-8
Идентификатор кодека : S_TEXT/UTF8
Идентификатор кодека/Информация : UTF-8 Plain Text
Продолжительность : 1 ч. 57 м.
Битрейт : 20 бит/сек
ElementCount : 685
Размер потока : 18,0 Кбайт (0%)
Заголовок : Full
Язык : English
Default : Нет
Forced : Нет
Меню
00:00:00.000 : de:Chapter 1
00:02:44.559 : de:Chapter 2
00:15:17.360 : de:Chapter 3
00:28:19.960 : de:Chapter 4
00:40:07.760 : de:Chapter 5
00:53:39.120 : de:Chapter 6
01:06:50.800 : de:Chapter 7
01:17:20.120 : de:Chapter 8
01:27:04.440 : de:Chapter 9
01:35:31.880 : de:Chapter 10
01:52:25.720 : de:Chapter 11
01:55:00.240 : de:Chapter 12
02:00:10.160 : de:Chapter 13-
-

Скриншоты

--
-
[free-tor.info].t18193.torrent 
Торрент: Зарегистрирован [ 2018-12-10 14:54 ] · 2A136C10AAAF2776B834C222A9480D6557038DC6

Скачать .torrent

Скачать .torrent

24 KB

Статус: проверено
.torrent скачан: 6 раз
Размер: 9,21 GB
Правила
Похожие темы

[Профиль] [ЛС]
Показать сообщения:    
Ответить на тему

Текущее время: 16-Июн 22:48

Часовой пояс: UTC + 4



Вы не можете начинать темы
Вы не можете отвечать на сообщения
Вы не можете редактировать свои сообщения
Вы не можете удалять свои сообщения
Вы не можете голосовать в опросах
Вы не можете прикреплять файлы к сообщениям
Вы можете скачивать файлы
Анализ веб сайтов Яндекс.Метрика