Ремнант: Всё ещё вижу тебя / I Still See You (Скотт Спир) [2018, триллер, BDRip 1080p от селезень | Лицензия]

Ответить на тему
Статистика раздачи [Обновить пиров]
Размер:  5,37 GB   |    Зарегистрирован:  4 месяца 9 дней   |    .torrent скачан:  19 раз
Сидов:  286  [  0 KB/s  ]   Личеров:  38  [  0 KB/s  ]   Подробная статистика пиров
 
   
 
 
Автор Сообщение

Skorp10n ®

Оффлайн

 Активный раздающий 1 Активный раздающий 2
 Активный релизер 1000 Активный релизер 1500 Активный релизер 2000 Активный релизер 250 Активный релизер 3000 Активный релизер 500 Активный релизер 5000 Активный релизер Фильмов (1000) Активный релизер Фильмов (300) Активный релизер Фильмов (600) Активный Форумчанин 1 Активный Форумчанин 2 Активный Форумчанин 3 Активный Форумчанин 4 Друг трекера Карма 1000 Карма 1500 Карма 3000 Карма 500 Меценат Ни дня без новостей Орденосец 1 степени Орденосец 2 степени Орденосец 3 степени Почетный орденосец Почетный репортер С Новым 2016 Годом! С Новым 2017 Годом! С Новым 2018 Годом! С Новым 2019 Годом! Супер Мега Контер Квейк ТОП-10

Пол: Мужской

Стаж: 3 года 11 месяцев

Наличие запрета:

Сообщений: 10847

Откуда: Free-Tor.com

Отдача: не определено

Загрузка: не определено

Нажми

Создавать темы 11-Дек-2018 16:41

[Цитировать]

Информация о фильме- Название: Ремнант: Всё ещё вижу тебя
Оригинальное название: I Still See You
Год выхода: 2018
Жанр: Триллер
Режиссер: Скотт Спир
В ролях: Белла Торн, Дермот Малруни, Ричард Хэрмон, Луис Хертэм, Сара Томпсон, Шон Бенсон, Хью Диллон, Эми Прайс-Фрэнсис, Арден Альфонсо, Алисса Выспяньский- -О фильме: Загадочная аномалия стирает границы между миром живых и мёртвых. Бесплотные призраки погибших людей внезапно вторгаются в дома и жизни своих близких и столь же неожиданно исчезают. Ремнанты. Никто не знает откуда они взялись и зачем пришли. Вероника решает сделать шаг в потусторонний мир для того, чтобы разгадать эту тайну. Но путь ей преграждает таинственный убийца из прошлого...-Страна: США
Студия: Gold Circle Films
Продолжительность: 01:38:11
Перевод: Дублированный | Лицензия R5-Качество: BDRip 1080p
Видео: MPEG-4 AVC, 1920x806, 5865 Kbit/s, 23.976 fps
Звук:
Аудио #01: 48 kHz, AC3, 5.1, 448 Kbps | Дублированный | RUS |
Аудио #02: 48 kHz, DTS, 5.1, 1510 Kbps | Оригинал | ENG | -

Скриншоты

--
-

MI

-General
Unique ID : 235943367340730948967759355313173361305 (0xB1810A2575F9D9C9DA1C85D5013CF299)
Complete name : D:Video111I.Still.See.You.2018.Lic.BDRip.1080p.seleZen.mkv
Format : Matroska
Format version : Version 4
File size : 5.37 GiB
Duration : 1 h 38 min
Overall bit rate : 7 825 kb/s
Movie name : I Still See You 2018 from seleZen
Encoded date : UTC 2019-03-06 14:29:29
Writing application : mkvmerge v31.0.0 ('Dolores In A Shoestand') 64-bit
Writing library : libebml v1.3.6 + libmatroska v1.4.9
Video
ID : 1
Format : AVC
Format/Info : Advanced Video Codec
Format profile : [email protected]
Format settings : CABAC / 4 Ref Frames
Format settings, CABAC : Yes
Format settings, ReFrames : 4 frames
Codec ID : V_MPEG4/ISO/AVC
Duration : 1 h 38 min
Bit rate : 5 865 kb/s
Width : 1 920 pixels
Height : 806 pixels
Display aspect ratio : 2.40:1
Frame rate mode : Constant
Frame rate : 23.976 (24000/1001) FPS
Color space : YUV
Chroma subsampling : 4:2:0
Bit depth : 8 bits
Scan type : Progressive
Bits/(Pixel*Frame) : 0.158
Stream size : 4.02 GiB (75%)
Title : CHD
Writing library : x264 core 155 r2867+74 66b5600 t_mod_Custom_2 [[email protected] X86_64]
Encoding settings : cabac=1 / ref=4 / deblock=1:-3:-3 / analyse=0x3:0x113 / me=umh / subme=10 / psy=1 / fade_compensate=0.00 / psy_rd=0.90:0.10 / mixed_ref=1 / me_range=48 / chroma_me=1 / trellis=2 / 8x8dct=1 / cqm=0 / deadzone=21,11 / fast_pskip=0 / chroma_qp_offset=-2 / threads=12 / lookahead_threads=2 / sliced_threads=0 / nr=0 / decimate=1 / interlaced=0 / bluray_compat=0 / constrained_intra=0 / fgo=0 / bframes=8 / b_pyramid=2 / b_adapt=2 / b_bias=0 / direct=3 / weightb=1 / open_gop=0 / weightp=2 / keyint=250 / keyint_min=23 / scenecut=40 / intra_refresh=0 / rc_lookahead=40 / rc=crf / mbtree=0 / crf=20.0000 / qcomp=0.70 / qpmin=0:0:0 / qpmax=69:69:69 / qpstep=4 / vbv_maxrate=35000 / vbv_bufsize=35000 / crf_max=0.0 / nal_hrd=none / filler=0 / ip_ratio=1.40 / pb_ratio=1.30 / aq=3:0.90 / aq-sensitivity=10.00 / aq-factor=1.00:1.00:1.00 / aq2=0 / aq3=2:[0.50:0.50]:[0.50:0.50]:[0.50:0.50]:[0.50:0.50] / aq3-sensitivity=10.00 / aq3-factor=[1.00:1.00]:[1.00:1.00]:[1.00:1.00] / aq3-boundary=192:64:24
Language : English
Default : Yes
Forced : No
Color range : Limited
Matrix coefficients : BT.709
Audio #1
ID : 2
Format : AC-3
Format/Info : Audio Coding 3
Commercial name : Dolby Digital
Codec ID : A_AC3
Duration : 1 h 38 min
Bit rate mode : Constant
Bit rate : 448 kb/s
Channel(s) : 6 channels
Channel layout : L R C LFE Ls Rs
Sampling rate : 48.0 kHz
Frame rate : 31.250 FPS (1536 SPF)
Bit depth : 16 bits
Compression mode : Lossy
Stream size : 315 MiB (6%)
Title : Dub [License]
Language : Russian
Service kind : Complete Main
Default : Yes
Forced : Yes
Audio #2
ID : 3
Format : DTS
Format/Info : Digital Theater Systems
Codec ID : A_DTS
Duration : 1 h 38 min
Bit rate mode : Constant
Bit rate : 1 509 kb/s
Channel(s) : 6 channels
Channel layout : C L R Ls Rs LFE
Sampling rate : 48.0 kHz
Frame rate : 93.750 FPS (512 SPF)
Bit depth : 24 bits
Compression mode : Lossy
Stream size : 1.04 GiB (19%)
Title : Original
Language : English
Default : No
Forced : No
Menu
00:00:00.000 : :绗?01 绔?
00:05:19.694 : :绗?02 绔?
00:11:20.138 : :绗?03 绔?
00:18:19.682 : :绗?04 绔?
00:23:20.691 : :绗?05 绔?
00:29:36.817 : :绗?06 绔?
00:35:12.152 : :绗?07 绔?
00:43:29.023 : :绗?08 绔?
00:48:11.931 : :绗?09 绔?
00:55:16.730 : :绗?10 绔?
01:01:09.791 : :绗?11 绔?
01:08:04.122 : :绗?12 绔?
01:12:41.941 : :绗?13 绔?
01:19:13.791 : :绗?14 绔?
01:23:08.817 : :绗?15 绔?
01:30:47.108 : :绗?16 绔?-
-Релиз от: -
[free-tor.info].t18210.torrent 
Торрент: Зарегистрирован [ 2019-03-07 18:13 ] · 28C0236B3B67059F79EDF6DF3049E1A4AFC65D2F

Скачать .torrent

Скачать .torrent

108 KB

Статус: проверено
.torrent скачан: 19 раз
Размер: 5,37 GB
Правила
Volodymyr(12-Дек-18)
Похожие темы

[Профиль] [ЛС]
Показать сообщения:    
Ответить на тему

Текущее время: 17-Июл 03:02

Часовой пояс: UTC + 4



Вы не можете начинать темы
Вы не можете отвечать на сообщения
Вы не можете редактировать свои сообщения
Вы не можете удалять свои сообщения
Вы не можете голосовать в опросах
Вы не можете прикреплять файлы к сообщениям
Вы можете скачивать файлы
Анализ веб сайтов Яндекс.Метрика