Мир принадлежит тебе / Le monde est à toi (Ромен Гаврас) [2018, комедия, криминал, WEB-DL 1080p | iTunes]

Ответить на тему
Статистика раздачи [Обновить пиров]
Размер:  5,69 GB   |    Зарегистрирован:  6 месяцев 30 дней   |    .torrent скачан:  42 раза
Сидов:  175  [  0 KB/s  ]   Личеров:  7  [  0 KB/s  ]   Подробная статистика пиров
 
   
 
 
Автор Сообщение

Skorp10n ®

Оффлайн

 Активный раздающий 1 Активный раздающий 2
 Активный релизер 1000 Активный релизер 1500 Активный релизер 2000 Активный релизер 250 Активный релизер 3000 Активный релизер 500 Активный релизер 5000 Активный релизер Фильмов (1000) Активный релизер Фильмов (300) Активный релизер Фильмов (600) Активный Форумчанин 1 Активный Форумчанин 2 Активный Форумчанин 3 Активный Форумчанин 4 Друг трекера Карма 1000 Карма 1500 Карма 3000 Карма 500 Меценат Ни дня без новостей Орденосец 1 степени Орденосец 2 степени Орденосец 3 степени Почетный орденосец Почетный репортер С Новым 2016 Годом! С Новым 2017 Годом! С Новым 2018 Годом! С Новым 2019 Годом! Супер Мега Контер Квейк ТОП-10

Пол: Мужской

Стаж: 3 года 11 месяцев

Наличие запрета:

Сообщений: 10847

Откуда: Free-Tor.com

Отдача: не определено

Загрузка: не определено

Нажми

Создавать темы 16-Дек-2018 14:37

[Цитировать]

Информация о фильме- Название: Мир принадлежит тебе
Оригинальное название: Le monde est à toi
Год выхода: 2018
Жанр: Комедия, криминал
Режиссер: Ромен Гаврас
В ролях: Карим Леклу, Изабель Аджани, Венсан Кассель, Улайя Амамра, Франсуа Дамиенс, Филипп Катрин, Сэм Спруэлл, Гэбби Роуз, Софиан Каммес, Мунир Амамра-О фильме: Криминальный талант он унаследовал от гламурной матери, изящно опустошающей лучшие бутики Франции, страстно увлекающейся азартными играми и искусно манипулирующей всеми вокруг, и отца, который не так давно наводил шороху на весь Париж. Но молодой человек мечтает о легальном бизнесе и спокойной жизни на берегу океана с любимой девушкой. Правда, чтобы провернуть последнюю грандиозную аферу, ему все-таки придется обратиться за помощью к маме и папе…- -Страна: Франция
Студия: 120 Films, Canal+ [fr], Chi-Fou-Mi Productions, Ciné, Iconoclast, NJJ Entertainment, Studio Canal, Tribus P Film
Продолжительность: 01:40:02
Перевод: Дублированный ~ iTunes-Файл-Кодек: MPEG-4 AVC
Качество: WEB-DL 1080p | Le.Monde.Est.A.Toi.2018.FRENCH.1080p.WEBRip.x264-TiMELiNE
Видео: 1920x804, 6603kb/s, 24.000fps
Звук:
1] 384kb/s, 6ch, 48000kHz, AC3 [RUS] | iTunes
2] 126kb/s, 2ch, 48000kHz, AAC [RUS] | iTunes
3] 384kb/s, 6ch, 48000kHz, AC3 [UKR] | Украинский язык
4] 640kb/s, 6ch, 48000kHz, EAC3 [FRE] | Французский язык
Субтитры: Русские [Дарья Голикова], французские, английские, испанские, немецкие-

MI

-Формат : Matroska
Версия формата : Version 4 / Version 2
Размер файла : 5,69 Гбайт
Продолжительность : 1 ч. 40 м.
Общий поток : 8140 Кбит/сек
Название фильма : Le.monde.est.a.toi..2018.WEB-DL.1080p-ylnian
Дата кодирования : UTC 2018-12-14 20:10:31
Программа кодирования : mkvmerge v29.0.0 ('Like It Or Not') 64-bit
Библиотека кодирования : libebml v1.3.6 + libmatroska v1.4.9
Видео
Идентификатор : 1
Формат : AVC
Формат/Информация : Advanced Video Codec
Профиль формата : [email protected]
Настройки формата : CABAC / 4 Ref Frames
Параметр CABAC формата : Да
Параметр RefFrames формата : 4 кадра
Идентификатор кодека : V_MPEG4/ISO/AVC
Продолжительность : 1 ч. 40 м.
Битрейт : 6603 Кбит/сек
Ширина : 1920 пикселей
Высота : 804 пикселя
Соотношение сторон : 2,40:1
Режим частоты кадров : Постоянный
Частота кадров : 24,000 кадра/сек
Цветовое пространство : YUV
Субдискретизация насыщенности : 4:2:0
Битовая глубина : 8 бит
Тип развёртки : Прогрессивная
Бит/(Пиксели*Кадры) : 0.178
Размер потока : 4,61 Гбайт (81%)
Заголовок : Le.Monde.Est.A.Toi.2018.FRENCH.1080p.WEBRip.x264-TiMELiNE
Язык : French
Default : Да
Forced : Да
Аудио #1
Идентификатор : 2
Формат : AC-3
Формат/Информация : Audio Coding 3
Идентификатор кодека : A_AC3
Продолжительность : 1 ч. 40 м.
Вид битрейта : Постоянный
Битрейт : 384 Кбит/сек
Каналы : 6 каналов
Расположение каналов : Front: L C R, Side: L R, LFE
Частота : 48,0 КГц
Частота кадров : 31,250 кадров/сек (1536 SPF)
Битовая глубина : 16 бит
Метод сжатия : С потерями
Размер потока : 275 Мбайт (5%)
Язык : Russian
Default : Да
Forced : Да
Аудио #2
Идентификатор : 3
Формат : AAC
Формат/Информация : Advanced Audio Codec
Профиль формата : LC
Идентификатор кодека : A_AAC-2
Продолжительность : 1 ч. 40 м.
Битрейт : 126 Кбит/сек
Каналы : 2 канала
Расположение каналов : Front: L R
Частота : 48,0 КГц
Частота кадров : 46,875 кадров/сек (1024 SPF)
Метод сжатия : С потерями
Размер потока : 90,1 Мбайт (2%)
Язык : Russian
Default : Нет
Forced : Нет
Аудио #3
Идентификатор : 4
Формат : AC-3
Формат/Информация : Audio Coding 3
Идентификатор кодека : A_AC3
Продолжительность : 1 ч. 40 м.
Вид битрейта : Постоянный
Битрейт : 384 Кбит/сек
Каналы : 6 каналов
Расположение каналов : Front: L C R, Side: L R, LFE
Частота : 48,0 КГц
Частота кадров : 31,250 кадров/сек (1536 SPF)
Битовая глубина : 16 бит
Метод сжатия : С потерями
Размер потока : 275 Мбайт (5%)
Язык : Ukrainian
Default : Нет
Forced : Нет
Аудио #4
Идентификатор : 5
Формат : E-AC-3
Формат/Информация : Enhanced Audio Coding 3
Идентификатор кодека : A_EAC3
Продолжительность : 1 ч. 40 м.
Вид битрейта : Постоянный
Битрейт : 640 Кбит/сек
Каналы : 6 каналов
Расположение каналов : Front: L C R, Side: L R, LFE
Частота : 48,0 КГц
Частота кадров : 187,500 кадров/сек (256 SPF)
Метод сжатия : С потерями
Задержка видео : 24 мс.
Размер потока : 458 Мбайт (8%)
Язык : French
Default : Нет
Forced : Нет
Текст #1
Идентификатор : 6
Формат : UTF-8
Идентификатор кодека : S_TEXT/UTF8
Идентификатор кодека/Информация : UTF-8 Plain Text
Продолжительность : 1 ч. 38 м.
Битрейт : 78 бит/сек
ElementCount : 1120
Размер потока : 57,0 Кбайт (0%)
Язык : Russian
Default : Нет
Forced : Нет
Текст #2
Идентификатор : 7
Формат : UTF-8
Идентификатор кодека : S_TEXT/UTF8
Идентификатор кодека/Информация : UTF-8 Plain Text
Продолжительность : 1 ч. 4 м.
Битрейт : 11 бит/сек
ElementCount : 181
Размер потока : 5,51 Кбайт (0%)
Заголовок : Forced
Язык : French
Default : Нет
Forced : Нет
Текст #3
Идентификатор : 8
Формат : UTF-8
Идентификатор кодека : S_TEXT/UTF8
Идентификатор кодека/Информация : UTF-8 Plain Text
Продолжительность : 1 ч. 35 м.
Битрейт : 68 бит/сек
ElementCount : 1364
Размер потока : 47,8 Кбайт (0%)
Заголовок : SDH
Язык : French
Default : Нет
Forced : Нет
Текст #4
Идентификатор : 9
Формат : UTF-8
Идентификатор кодека : S_TEXT/UTF8
Идентификатор кодека/Информация : UTF-8 Plain Text
Продолжительность : 1 ч. 32 м.
Битрейт : 49 бит/сек
ElementCount : 950
Размер потока : 33,7 Кбайт (0%)
Язык : English
Default : Нет
Forced : Нет
Текст #5
Идентификатор : 10
Формат : UTF-8
Идентификатор кодека : S_TEXT/UTF8
Идентификатор кодека/Информация : UTF-8 Plain Text
Продолжительность : 1 ч. 33 м.
Битрейт : 51 бит/сек
ElementCount : 1063
Размер потока : 35,1 Кбайт (0%)
Язык : Spanish
Default : Нет
Forced : Нет
Текст #6
Идентификатор : 11
Формат : UTF-8
Идентификатор кодека : S_TEXT/UTF8
Идентификатор кодека/Информация : UTF-8 Plain Text
Продолжительность : 1 ч. 39 м.
Битрейт : 51 бит/сек
ElementCount : 1103
Размер потока : 37,6 Кбайт (0%)
Язык : German
Default : Нет
Forced : Нет
Меню
00:00:00.000 : fr:1
00:04:02.125 : fr:2
00:08:17.458 : fr:3
00:11:24.624 : fr:4
00:19:19.374 : fr:5
00:26:32.249 : fr:6
00:33:08.999 : fr:7
00:40:12.124 : fr:8
00:44:38.207 : fr:9
00:55:00.332 : fr:10
01:00:46.748 : fr:11
01:06:54.664 : fr:12
01:13:41.914 : fr:13
01:18:39.497 : fr:14
01:28:06.997 : fr:15-
-

Скриншоты

--
-Релиз: ylnian-
[free-tor.info].t18335.torrent 
Торрент: Зарегистрирован [ 2018-12-16 14:37 ] · 4FC2DE4C1471E1856D071FC7247763A6BB2B7BBB

Скачать .torrent

Скачать .torrent

29 KB

Статус: проверено
.torrent скачан: 42 раз
Размер: 5,69 GB
Правила
Volodymyr(17-Дек-18)
Похожие темы

[Профиль] [ЛС]
Показать сообщения:    
Ответить на тему

Текущее время: 16-Июл 03:54

Часовой пояс: UTC + 4



Вы не можете начинать темы
Вы не можете отвечать на сообщения
Вы не можете редактировать свои сообщения
Вы не можете удалять свои сообщения
Вы не можете голосовать в опросах
Вы не можете прикреплять файлы к сообщениям
Вы можете скачивать файлы
Анализ веб сайтов Яндекс.Метрика