Голая Джульетта / Juliet, Naked (Джесси Перец) [2018, драма, мелодрама, комедия, музыка, BDRip 1080p | iTunes]

Ответить на тему
Статистика раздачи [Обновить пиров]
Размер:  7 GB   |    Зарегистрирован:  6 месяцев 28 дней   |    .torrent скачан:  16 раз
Сидов:  135  [  0 KB/s  ]   Личеров:  4  [  0 KB/s  ]   Подробная статистика пиров
 
   
 
 
Автор Сообщение

Skorp10n ®

Оффлайн

 Активный раздающий 1 Активный раздающий 2
 Активный релизер 1000 Активный релизер 1500 Активный релизер 2000 Активный релизер 250 Активный релизер 3000 Активный релизер 500 Активный релизер 5000 Активный релизер Фильмов (1000) Активный релизер Фильмов (300) Активный релизер Фильмов (600) Активный Форумчанин 1 Активный Форумчанин 2 Активный Форумчанин 3 Активный Форумчанин 4 Друг трекера Карма 1000 Карма 1500 Карма 3000 Карма 500 Меценат Ни дня без новостей Орденосец 1 степени Орденосец 2 степени Орденосец 3 степени Почетный орденосец Почетный репортер С Новым 2016 Годом! С Новым 2017 Годом! С Новым 2018 Годом! С Новым 2019 Годом! Супер Мега Контер Квейк ТОП-10

Пол: Мужской

Стаж: 3 года 11 месяцев

Наличие запрета:

Сообщений: 10847

Откуда: Free-Tor.com

Отдача: не определено

Загрузка: не определено

Нажми

Создавать темы 19-Дек-2018 19:09

[Цитировать]

Информация о фильме- Название: Голая Джульетта
Оригинальное название: Juliet, Naked
Год выхода: 2018
Жанр: Драма, мелодрама, комедия, музыка
Страна: Великобритания, США
Перевод: Профессиональный (многоголосый закадровый) | iTunes
Продолжительность: 01:37:34
Режиссер: Джесси Перец
В ролях: Крис О’Дауд, Роуз Бирн, Александра Клэтворти, Лили Брэзир, Ко Ивагами, Лили Ньюмарк, Денис Гоф, Филип Дэвис, Итан Хоук и др.-О фильме: История о девушке по имени Энни, у которой неожиданно вспыхивает роман с бывшей музыкальной звездой Такером Кроу. Проблема в том, что она погрязла в многолетних и многострадальных отношениях с Дунканом — парнем, который в свою очередь преклоняется перед Кроу.- -Файл-Формат: MKV
Качество: BDRip 1080p
Видео: MPEG-4 AVC, 1920x804, 9440 kbps, 23,976 fps
Звук#1: русский, AC3, 5.1 ch, 48 kHz, 384 kbps | iTunes
Звук#2: английский, AC3, 5.1 ch, 48 kHz, 448 kbps | оригинал
Субтитры: русские (форс., полные), украинские (полные), английские (полные, SDH)-

MI

-General
Уникальный идентификатор : 247189702092496851285582302554397945285 (0xB9F7014276C7F8E5B1A30953C2E52DC5)
Полное имя : F:TorrentJulietNakedBDRip1080p.mkv
Формат : Matroska
Версия формата : Version 4 / Version 2
Размер файла : 7.00 GiB
Продолжительность : 1 h 37 min
Общий поток : 10.3 Mb/s
Дата кодирования : UTC 2018-12-19 08:36:48
Программа кодирования : mkvmerge v9.5.0 ('Quiet Fire') 64bit
Библиотека кодирования : libebml v1.3.4 + libmatroska v1.4.5
Video
Идентификатор : 1
Формат : AVC
Формат/Информация : Advanced Video Codec
Профиль формата : [email protected]
Настройки формата : CABAC / 5 Ref Frames
Параметр CABAC формата : Yes
Параметр RefFrames формата : 5 frames
Идентификатор кодека : V_MPEG4/ISO/AVC
Продолжительность : 1 h 37 min
Битрейт : 9 440 kb/s
Ширина : 1 920 pixels
Высота : 804 pixels
Соотношение сторон : 2.40:1
Режим частоты кадров : Constant
Частота кадров : 23.976 (24000/1001) FPS
Цветовое пространство : YUV
Субдискретизация насыщенности : 4:2:0
Битовая глубина : 8 bits
Тип развёртки : Progressive
Бит/(Пиксели*Кадры) : 0.255
Размер потока : 6.43 GiB (92%)
Библиотека кодирования : x264 core 157 r2935M 545de2f
Настройки программы : cabac=1 / ref=5 / deblock=1:-1:-1 / analyse=0x3:0x113 / me=umh / subme=11 / psy=1 / psy_rd=1.00:0.00 / mixed_ref=1 / me_range=32 / chroma_me=1 / trellis=2 / 8x8dct=1 / cqm=0 / deadzone=21,11 / fast_pskip=0 / chroma_qp_offset=-2 / threads=9 / lookahead_threads=2 / sliced_threads=0 / nr=0 / decimate=0 / interlaced=0 / bluray_compat=0 / constrained_intra=0 / bframes=12 / b_pyramid=2 / b_adapt=2 / b_bias=0 / direct=3 / weightb=1 / open_gop=0 / weightp=2 / keyint=240 / keyint_min=24 / scenecut=40 / intra_refresh=0 / rc_lookahead=120 / rc=2pass / mbtree=0 / bitrate=9440 / ratetol=1.0 / qcomp=0.70 / qpmin=0 / qpmax=69 / qpstep=4 / cplxblur=20.0 / qblur=0.5 / vbv_maxrate=50000 / vbv_bufsize=62500 / nal_hrd=none / filler=0 / ip_ratio=1.40 / pb_ratio=1.30 / aq=3:0.80
Язык : English
Default : Yes
Forced : No
Audio #1
Идентификатор : 2
Формат : AC-3
Формат/Информация : Audio Coding 3
Идентификатор кодека : A_AC3
Продолжительность : 1 h 37 min
Вид битрейта : Constant
Битрейт : 384 kb/s
Каналы : 6 channels
Расположение каналов : Front: L C R, Side: L R, LFE
Частота : 48.0 kHz
Частота кадров : 31.250 FPS (1536 SPF)
Битовая глубина : 16 bits
Метод сжатия : Lossy
Размер потока : 268 MiB (4%)
Язык : Russian
Default : Yes
Forced : No
Audio #2
Идентификатор : 3
Формат : AC-3
Формат/Информация : Audio Coding 3
Идентификатор кодека : A_AC3
Продолжительность : 1 h 37 min
Вид битрейта : Constant
Битрейт : 448 kb/s
Каналы : 6 channels
Расположение каналов : Front: L C R, Side: L R, LFE
Частота : 48.0 kHz
Частота кадров : 31.250 FPS (1536 SPF)
Битовая глубина : 16 bits
Метод сжатия : Lossy
Размер потока : 313 MiB (4%)
Язык : English
Default : No
Forced : No
Text #1
Идентификатор : 4
Формат : UTF-8
Идентификатор кодека : S_TEXT/UTF8
Идентификатор кодека/Информация : UTF-8 Plain Text
Продолжительность : 1 h 32 min
Битрейт : 6 b/s
ElementCount : 76
Размер потока : 4.19 KiB (0%)
Заголовок : rusForced
Язык : Russian
Default : Yes
Forced : Yes
Text #2
Идентификатор : 5
Формат : UTF-8
Идентификатор кодека : S_TEXT/UTF8
Идентификатор кодека/Информация : UTF-8 Plain Text
Продолжительность : 1 h 32 min
Битрейт : 130 b/s
ElementCount : 1707
Размер потока : 88.2 KiB (0%)
Заголовок : rusFull
Язык : Russian
Default : No
Forced : No
Text #3
Идентификатор : 6
Формат : UTF-8
Идентификатор кодека : S_TEXT/UTF8
Идентификатор кодека/Информация : UTF-8 Plain Text
Продолжительность : 1 h 32 min
Битрейт : 153 b/s
ElementCount : 1706
Размер потока : 104 KiB (0%)
Заголовок : ukrFull
Язык : Ukrainian
Default : No
Forced : No
Text #4
Идентификатор : 7
Формат : UTF-8
Идентификатор кодека : S_TEXT/UTF8
Идентификатор кодека/Информация : UTF-8 Plain Text
Продолжительность : 1 h 32 min
Битрейт : 90 b/s
ElementCount : 1634
Размер потока : 61.4 KiB (0%)
Заголовок : engFull
Язык : English
Default : No
Forced : No
Text #5
Идентификатор : 8
Формат : UTF-8
Идентификатор кодека : S_TEXT/UTF8
Идентификатор кодека/Информация : UTF-8 Plain Text
Продолжительность : 1 h 36 min
Битрейт : 102 b/s
ElementCount : 1921
Размер потока : 72.7 KiB (0%)
Заголовок : engSDH
Язык : English
Default : No
Forced : No
Menu
00:00:00.000 : :Chapter 01
00:06:39.482 : :Chapter 02
00:12:06.559 : :Chapter 03
00:19:18.532 : :Chapter 04
00:24:23.753 : :Chapter 05
00:30:53.560 : :Chapter 06
00:36:09.167 : :Chapter 07
00:42:20.246 : :Chapter 08
00:48:10.012 : :Chapter 09
00:54:03.698 : :Chapter 10
00:59:37.699 : :Chapter 11
01:06:02.041 : :Chapter 12
01:12:52.117 : :Chapter 13
01:20:53.181 : :Chapter 14
01:24:25.727 : :Chapter 15
01:29:59.519 : :Chapter 16-
-

Скриншоты

--
-
[free-tor.info].t18372.torrent 
Торрент: Зарегистрирован [ 2018-12-19 19:09 ] · 93FCEC9A8840ADBEF2F54A7FBA79500C6B8C59F8

Скачать .torrent

Скачать .torrent

18 KB

Статус: проверено
.torrent скачан: 16 раз
Размер: 7 GB
Правила
Похожие темы

[Профиль] [ЛС]
Показать сообщения:    
Ответить на тему

Текущее время: 17-Июл 02:55

Часовой пояс: UTC + 4



Вы не можете начинать темы
Вы не можете отвечать на сообщения
Вы не можете редактировать свои сообщения
Вы не можете удалять свои сообщения
Вы не можете голосовать в опросах
Вы не можете прикреплять файлы к сообщениям
Вы можете скачивать файлы
Анализ веб сайтов Яндекс.Метрика