Веном / Venom (Рубен Фляйшер) [2018, фантастика, боевик, триллер, комикс, супергерой, BDRip 1080p от qqss44 & MegaPeer | Лицензия]

Ответить на тему
Статистика раздачи [Обновить пиров]
Размер:  7,75 GB   |    Зарегистрирован:  6 месяцев 11 дней   |    .torrent скачан:  46 раз
Сидов:  696  [  0 KB/s  ]   Личеров:  47  [  0 KB/s  ]   Подробная статистика пиров
 
   
 
 
Автор Сообщение

Skorp10n ®

Оффлайн

 Активный раздающий 1 Активный раздающий 2
 Активный релизер 1000 Активный релизер 1500 Активный релизер 2000 Активный релизер 250 Активный релизер 3000 Активный релизер 500 Активный релизер 5000 Активный релизер Фильмов (1000) Активный релизер Фильмов (300) Активный релизер Фильмов (600) Активный Форумчанин 1 Активный Форумчанин 2 Активный Форумчанин 3 Активный Форумчанин 4 Друг трекера Карма 1000 Карма 1500 Карма 3000 Карма 500 Меценат Ни дня без новостей Орденосец 1 степени Орденосец 2 степени Орденосец 3 степени Почетный орденосец Почетный репортер С Новым 2016 Годом! С Новым 2017 Годом! С Новым 2018 Годом! С Новым 2019 Годом! Супер Мега Контер Квейк ТОП-10

Пол: Мужской

Стаж: 3 года 11 месяцев

Наличие запрета:

Сообщений: 10847

Откуда: Free-Tor.com

Отдача: не определено

Загрузка: не определено

Нажми

Создавать темы 20-Дек-2018 16:18

[Цитировать]

Информация о фильме- Название: Веном
Оригинальное название: Venom
Год выпуска: 2018
Жанр: Фантастика, боевик, триллер, комикс, супергерой
Режиссер: Рубен Фляйшер
В ролях: Том Харди, Мишель Уильямс, Риз Ахмед, Рейд Скотт, Марчелла Браджио, Вуди Харрельсон, Дженни Слейт, Пегги Лу, Мак Брандт, Рон Сефас Джонс, Мишель Ли (II), Мелора Уолтерс, Сопе Алуко-О фильме:-Что если в один прекрасный день в тебя вселяется существо-симбиот, которое наделяет тебя сверхчеловеческими способностями? Вот только Веном - симбиот совсем недобрый, и договориться с ним невозможно. Хотя нужно ли договариваться?.. Ведь в какой-то момент ты понимаешь, что быть плохим вовсе не так уж и плохо. Так даже веселее. В мире и так слишком много супергероев! Мы - Веном!- -Страна: США
Студия: Columbia Pictures Corporation, Marvel Entertainment, Pascal Pictures
Продолжительность: 01:52:08
Перевод: Дублированный | Лицензия-Файл-Формат: MKV, BDRip 1080p
Видео: MPEG-4 AVC, 9250 Кбит/с, 1920x800
Aудио#1: [RUS] AC3 | 48 KHz | 5.1 (Front: L С R Side: L R) + LFE | ~640 kbps
Субтитры: русские форсированные и полные
Релиз от:
-

Скриншоты

--
-

МИ

-Общее
Уникальный идентификатор : 219764864893854010436570490147398041373 (0xA5552C641853871390116DC45E153F1D)
Полное имя : H:Venom.(2018).BDRip-1080p.MegaPeer.(qqss44).mkv
Формат : Matroska
Версия формата : Version 2
Размер файла : 7,75 Гбайт
Продолжительность : 1 ч. 52 м.
Общий поток : 9895 Кбит/сек
Название фильма : Venom.(2018).BDRip-1080p.MegaPeer.(qqss44)
Дата кодирования : UTC 2019-01-05 11:29:30
Программа кодирования : mkvmerge v7.8.0 ('River Man') 32bit built on Apr 3 2015 12:11:22
Библиотека кодирования : libebml v1.3.1 + libmatroska v1.4.2
Видео
Идентификатор : 1
Формат : AVC
Формат/Информация : Advanced Video Codec
Профиль формата : [email protected]
Параметр CABAC формата : Да
Параметр ReFrames формата : 5 кадров
Идентификатор кодека : V_MPEG4/ISO/AVC
Продолжительность : 1 ч. 52 м.
Битрейт : 9250 Кбит/сек
Ширина : 1920 пикселей
Высота : 800 пикселей
Соотношение сторон : 2,40:1
Режим частоты кадров : Постоянный
Частота кадров : 23,976 (24000/1001) кадра/сек
Цветовое пространство : YUV
Субдискретизация насыщенности : 4:2:0
Битовая глубина : 8 бит
Тип развёртки : Прогрессивная
Бит/(Пиксели*Кадры) : 0.251
Размер потока : 7,10 Гбайт (92%)
Библиотека кодирования : x264 core 152 r2851 ba24899
Настройки программы : cabac=1 / ref=5 / deblock=1:-3:-3 / analyse=0x3:0x113 / me=umh / subme=11 / psy=1 / psy_rd=1.00:0.00 / mixed_ref=1 / me_range=32 / chroma_me=1 / trellis=2 / 8x8dct=1 / cqm=0 / deadzone=21,11 / fast_pskip=0 / chroma_qp_offset=-2 / threads=12 / lookahead_threads=2 / sliced_threads=0 / nr=0 / decimate=0 / interlaced=0 / bluray_compat=0 / constrained_intra=0 / bframes=9 / b_pyramid=2 / b_adapt=2 / b_bias=0 / direct=3 / weightb=1 / open_gop=0 / weightp=2 / keyint=250 / keyint_min=23 / scenecut=40 / intra_refresh=0 / rc_lookahead=40 / rc=2pass / mbtree=0 / bitrate=9250 / ratetol=1.0 / qcomp=0.70 / qpmin=0 / qpmax=69 / qpstep=4 / cplxblur=20.0 / qblur=0.5 / vbv_maxrate=50000 / vbv_bufsize=62500 / nal_hrd=none / filler=0 / ip_ratio=1.40 / pb_ratio=1.30 / aq=3:0.70
Язык : English
Default : Да
Forced : Нет
Аудио
Идентификатор : 2
Формат : AC-3
Формат/Информация : Audio Coding 3
Расширение режима : CM (complete main)
Параметр Endianness формата : Big
Идентификатор кодека : A_AC3
Продолжительность : 1 ч. 52 м.
Вид битрейта : Постоянный
Битрейт : 640 Кбит/сек
Каналы : 6 каналов
Расположение каналов : Front: L C R, Side: L R, LFE
Частота : 48,0 КГц
Частота кадров : 31,250 кадров/сек (1536 spf)
Метод сжатия : С потерями
Размер потока : 513 Мбайт (6%)
Язык : Russian
Default : Да
Forced : Нет
Текст #1
Идентификатор : 3
Формат : UTF-8
Идентификатор кодека : S_TEXT/UTF8
Идентификатор кодека/Информация : UTF-8 Plain Text
Заголовок : FORCED
Язык : Russian
Default : Да
Forced : Нет
Текст #2
Идентификатор : 4
Формат : UTF-8
Идентификатор кодека : S_TEXT/UTF8
Идентификатор кодека/Информация : UTF-8 Plain Text
Заголовок : FULL
Язык : Russian
Default : Нет
Forced : Нет
Меню
00:00:00.000 : en:Chapter 1
00:04:43.200 : en:Chapter 2
00:10:58.074 : en:Chapter 3
00:17:34.929 : en:Chapter 4
00:24:05.486 : en:Chapter 5
00:32:18.812 : en:Chapter 6
00:40:07.447 : en:Chapter 7
00:46:51.976 : en:Chapter 8
00:53:26.203 : en:Chapter 9
01:00:57.070 : en:Chapter 10
01:04:01.796 : en:Chapter 11
01:08:36.446 : en:Chapter 12
01:11:12.852 : en:Chapter 13
01:14:15.743 : en:Chapter 14
01:21:18.749 : en:Chapter 15
01:27:15.021 : en:Chapter 16-
-
[free-tor.info].t18393.torrent 
Торрент: Зарегистрирован [ 2019-01-05 17:14 ] · 9F06DFDB9B5BB7397D7E77924368867C51DA649F

Скачать .torrent

Скачать .torrent

40 KB

Статус: проверено
.torrent скачан: 46 раз
Размер: 7,75 GB
Правила
Volodymyr(20-Дек-18), Demuirg23(05-Янв-19)
Похожие темы

[Профиль] [ЛС]
Показать сообщения:    
Ответить на тему

Текущее время: 17-Июл 03:15

Часовой пояс: UTC + 4



Вы не можете начинать темы
Вы не можете отвечать на сообщения
Вы не можете редактировать свои сообщения
Вы не можете удалять свои сообщения
Вы не можете голосовать в опросах
Вы не можете прикреплять файлы к сообщениям
Вы можете скачивать файлы
Анализ веб сайтов Яндекс.Метрика