Закону тут не место / L'ora legale (Сальво Фикарра, Валентино Пиконе) [2017, комедия, BDRip 1080p | iTunes]

Ответить на тему
Статистика раздачи [Обновить пиров]
Размер:  7,3 GB   |    Зарегистрирован:  6 месяцев 25 дней   |    .torrent скачан:  13 раз
Сидов:  161  [  0 KB/s  ]   Личеров:  4  [  0 KB/s  ]   Подробная статистика пиров
 
   
 
 
Автор Сообщение

Skorp10n ®

Оффлайн

 Активный раздающий 1 Активный раздающий 2
 Активный релизер 1000 Активный релизер 1500 Активный релизер 2000 Активный релизер 250 Активный релизер 3000 Активный релизер 500 Активный релизер 5000 Активный релизер Фильмов (1000) Активный релизер Фильмов (300) Активный релизер Фильмов (600) Активный Форумчанин 1 Активный Форумчанин 2 Активный Форумчанин 3 Активный Форумчанин 4 Друг трекера Карма 1000 Карма 1500 Карма 3000 Карма 500 Меценат Ни дня без новостей Орденосец 1 степени Орденосец 2 степени Орденосец 3 степени Почетный орденосец Почетный репортер С Новым 2016 Годом! С Новым 2017 Годом! С Новым 2018 Годом! С Новым 2019 Годом! Супер Мега Контер Квейк ТОП-10

Пол: Мужской

Стаж: 3 года 11 месяцев

Наличие запрета:

Сообщений: 10847

Откуда: Free-Tor.com

Отдача: не определено

Загрузка: не определено

Нажми

Создавать темы 21-Дек-2018 15:59

[Цитировать]

Закону тут не место / L'ora legale- Страна: Италия
Производство: Medusa Film S.p.a., Tramp Ltd.
Год выпуска: 2017
Жанр: комедия
Продолжительность: 01:28:55-Режиссер: Сальво Фикарра, Валентино Пиконе
В ролях: Сальво Фикарра, Валентино Пиконе, Винченцо Амато, Антонио Катания, Серджо Фришия, Лео Гульотта, Алессандро Ройа-Описание: Жители маленького сицилийского городка устали от коррупции и беспредела властей и выбрали себе нового мэра — такого честного, каких не видел мир. Новоизбранный глава администрации даёт слово бороться со всем, что противоречит закону — и это не просто красивые слова для агитации. Он обещает горожанам чистые улицы, велодорожки, бесплатную медицину, но оказывается, не все жители городка готовы к таким переменам. Особенно недовольны зятья нового мэра, которые привыкли к легкой жизни при прошлой власти. Они решают вернуть всё на круги своя и придумывают коварный план...- -Перевод: Профессиональный (многоголосый, закадровый) | iTunes
Субтитры: русские, итальянские (forced + SDH)-Качество: BDRip 1080p | исходник Blu-Ray (ITA) - L.Ora.Legale.2017.Full.BluRay.AVC.ITA.DTS.HDMA.5.1-[BVT]
Формат: MKV
Видео кодек: AVC
Аудио кодек: АС3 | DTS
Видео: 1920x816 (2.35:1), 25.000 fps, MPEG-4 AVC ~10.0 Мbps avg
Аудио №1: 48.0 kHz, AC3 Dolby Digital, 2/0 (L,R) ch, ~192 kbps | RUS / MVO / iTunes
Аудио №2: 48.0 kHz, Digital Theater Systems, 3/2 (L,C,R,l,r) + LFE ch, ~1509 kbps | ITA
Формат субтитров: UTF-8 Plain Text-Дата премьеры (мир): 19 января 2017
Дата премьеры (РФ): 20 сентября 2018, «ПилотКино»- -

Дополнительная информация

-Релиз от:
-
-

Media Info

-General
Уникальный идентификатор : 202286974503981839155082071513064361401 (0x982F0DDD256663AA34DE612F7B4D4DB9)
Полное имя : Lora.legale.2017.BDRip.1080p-ylnian.mkv
Формат : Matroska
Версия формата : Version 4
Размер файла : 7,30 Гбайт
Продолжительность : 1 ч. 28 м.
Общий поток : 11,7 Мбит/сек
Название фильма : Lora.legale.2017.BDRip.1080p-ylnian
Дата кодирования : UTC 2018-12-20 11:24:50
Программа кодирования : mkvmerge v29.0.0 ('Like It Or Not') 64-bit
Библиотека кодирования : libebml v1.3.6 + libmatroska v1.4.9
Видео
Идентификатор : 1
Формат : AVC
Формат/Информация : Advanced Video Codec
Профиль формата : [email protected]
Настройки формата : CABAC / 4 Ref Frames
Параметр CABAC формата : Да
Параметр RefFrames формата : 4 кадра
Идентификатор кодека : V_MPEG4/ISO/AVC
Продолжительность : 1 ч. 28 м.
Битрейт : 10,0 Мбит/сек
Ширина : 1920 пикселей
Высота : 816 пикселей
Соотношение сторон : 2,35:1
Режим частоты кадров : Постоянный
Частота кадров : 25,000 кадров/сек
Цветовое пространство : YUV
Субдискретизация насыщенности : 4:2:0
Битовая глубина : 8 бит
Тип развёртки : Прогрессивная
Бит/(Пиксели*Кадры) : 0.256
Размер потока : 6,24 Гбайт (85%)
Заголовок : Lora.legale.2017.BDRip.1080p-ylnian
Библиотека кодирования : x264 core 157 r2935 545de2f
Настройки программы : cabac=1 / ref=4 / deblock=1:-3:-3 / analyse=0x3:0x133 / me=umh / subme=11 / psy=1 / psy_rd=1.05:0.00 / mixed_ref=1 / me_range=64 / chroma_me=1 / trellis=2 / 8x8dct=1 / cqm=0 / deadzone=21,11 / fast_pskip=1 / chroma_qp_offset=-4 / threads=12 / lookahead_threads=2 / sliced_threads=0 / nr=0 / decimate=1 / interlaced=0 / bluray_compat=0 / constrained_intra=0 / bframes=9 / b_pyramid=2 / b_adapt=2 / b_bias=0 / direct=2 / weightb=1 / open_gop=0 / weightp=2 / keyint=250 / keyint_min=23 / scenecut=40 / intra_refresh=0 / rc_lookahead=250 / rc=crf / mbtree=0 / crf=16.5 / qcomp=0.80 / qpmin=0 / qpmax=69 / qpstep=4 / vbv_maxrate=50000 / vbv_bufsize=62500 / crf_max=0.0 / nal_hrd=none / filler=0 / ip_ratio=1.30 / pb_ratio=1.20 / aq=2:0.90
Язык : Italian
Default : Да
Forced : Да
Аудио #1
Идентификатор : 2
Формат : AC-3
Формат/Информация : Audio Coding 3
Коммерческое название : Dolby Digital
Идентификатор кодека : A_AC3
Продолжительность : 1 ч. 28 м.
Вид битрейта : Постоянный
Битрейт : 192 Кбит/сек
Каналы : 2 канала
Channel layout : L R
Частота : 48,0 КГц
Частота кадров : 31,250 кадров/сек (1536 SPF)
Битовая глубина : 16 бит
Метод сжатия : С потерями
Размер потока : 122 Мбайт (2%)
Язык : Russian
Default : Да
Forced : Да
Аудио #2
Идентификатор : 3
Формат : DTS
Формат/Информация : Digital Theater Systems
Идентификатор кодека : A_DTS
Продолжительность : 1 ч. 28 м.
Вид битрейта : Постоянный
Битрейт : 1509 Кбит/сек
Каналы : 6 каналов
Channel layout : C L R Ls Rs LFE
Частота : 48,0 КГц
Частота кадров : 93,750 кадра/сек (512 SPF)
Битовая глубина : 16 бит
Метод сжатия : С потерями
Размер потока : 960 Мбайт (13%)
Язык : Italian
Default : Нет
Forced : Нет
Текст #1
Идентификатор : 4
Формат : UTF-8
Идентификатор кодека : S_TEXT/UTF8
Идентификатор кодека/Информация : UTF-8 Plain Text
Продолжительность : 1 ч. 23 м.
Битрейт : 128 бит/сек
ElementCount : 1310
Размер потока : 79,1 Кбайт (0%)
Язык : Russian
Default : Нет
Forced : Нет
Текст #2
Идентификатор : 5
Формат : UTF-8
Идентификатор кодека : S_TEXT/UTF8
Идентификатор кодека/Информация : UTF-8 Plain Text
Битрейт : 0 бит/сек
ElementCount : 0
Размер потока : 0,00 байт (0%)
Заголовок : forced
Язык : Italian
Default : Нет
Forced : Нет
Текст #3
Идентификатор : 6
Формат : UTF-8
Идентификатор кодека : S_TEXT/UTF8
Идентификатор кодека/Информация : UTF-8 Plain Text
Продолжительность : 1 ч. 24 м.
Битрейт : 94 бит/сек
ElementCount : 1462
Размер потока : 58,5 Кбайт (0%)
Заголовок : SDH
Язык : Italian
Default : Нет
Forced : Нет
Меню
00:00:00.000 : it:01
00:07:33.880 : it:02
00:15:12.440 : it:03
00:22:05.440 : it:04
00:28:16.920 : it:05
00:34:41.200 : it:06
00:43:11.680 : it:07
00:50:23.400 : it:08
00:58:15.520 : it:09
01:05:09.840 : it:10
01:10:43.440 : it:11
01:18:50.600 : it:12-
-

Скриншоты

--
-
[free-tor.info].t18408.torrent 
Торрент: Зарегистрирован [ 2018-12-21 15:59 ] · 10D22B695F31B9DA3B2E8A3DABCFD47428248AA3

Скачать .torrent

Скачать .torrent

37 KB

Статус: проверено
.torrent скачан: 13 раз
Размер: 7,3 GB
Правила
Volodymyr(22-Дек-18)
Похожие темы

[Профиль] [ЛС]
Показать сообщения:    
Ответить на тему

Текущее время: 16-Июл 04:09

Часовой пояс: UTC + 4



Вы не можете начинать темы
Вы не можете отвечать на сообщения
Вы не можете редактировать свои сообщения
Вы не можете удалять свои сообщения
Вы не можете голосовать в опросах
Вы не можете прикреплять файлы к сообщениям
Вы можете скачивать файлы
Анализ веб сайтов Яндекс.Метрика