Из Неаполя с любовью / Troppo napoletano (Джанлука Ансанелли / Gianluca Ansanelli) [2016, комедия, WEB-DL 1080p | iTunes]

Ответить на тему
Статистика раздачи [Обновить пиров]
Размер:  3,94 GB   |    Зарегистрирован:  6 месяцев 25 дней   |    .torrent скачан:  6 раз
Сидов:  50  [  0 KB/s  ]   Личеров:  6  [  0 KB/s  ]   Подробная статистика пиров
 
   
 
 
Автор Сообщение

Skorp10n ®

Оффлайн

 Активный раздающий 1 Активный раздающий 2
 Активный релизер 1000 Активный релизер 1500 Активный релизер 2000 Активный релизер 250 Активный релизер 3000 Активный релизер 500 Активный релизер 5000 Активный релизер Фильмов (1000) Активный релизер Фильмов (300) Активный релизер Фильмов (600) Активный Форумчанин 1 Активный Форумчанин 2 Активный Форумчанин 3 Активный Форумчанин 4 Друг трекера Карма 1000 Карма 1500 Карма 3000 Карма 500 Меценат Ни дня без новостей Орденосец 1 степени Орденосец 2 степени Орденосец 3 степени Почетный орденосец Почетный репортер С Новым 2016 Годом! С Новым 2017 Годом! С Новым 2018 Годом! С Новым 2019 Годом! Супер Мега Контер Квейк ТОП-10

Пол: Мужской

Стаж: 3 года 11 месяцев

Наличие запрета:

Сообщений: 10847

Откуда: Free-Tor.com

Отдача: не определено

Загрузка: не определено

Нажми

Создавать темы 21-Дек-2018 16:07

[Цитировать]

Из Неаполя с любовью / Troppo napoletano- Страна: Италия
Производство: Buonaluna, Cattleya, Rai Cinema
Год выпуска: 2016
Жанр: комедия
Продолжительность: 01:37:33-Режиссер: Джанлука Ансанелли / Gianluca Ansanelli
В ролях: Серена Росси, Джорджиа Агата, Элеонора Альбрехт, Энцо Аттанасио, Энцо Казертано, Джузи Червицци, Джованни Эспозито-Описание: Знаете, что такое настоящая неаполитанская семья..? Это множество любящих тётушек, чудаковатых дядюшек и даже соседей, которые уже чувствуют себя своими. И один маленький Чиро на всех. Живётся ему весело, вот только чрезмерная опека мамы и родственников — штука тяжёлая. Школьный психолог Томмазо решает помочь Чиро, но неожиданно выясняет, что в переживаниях мальчика виновата совсем не большая итальянская семья, а… первая любовь. Они заключают соглашение: Томмазо поможет Чиро влюбить в себя одноклассницу, а в ответ Чиро поможет застенчивому психологу завоевать расположение своей матери, шикарной и недоступной Деборы...- -Перевод: Профессиональный (многоголосый, закадровый) | iTunes
Субтитры: русские (forced) / на песни-Качество: WEB-DL 1080p
Формат: МКV
Видео кодек: AVC
Аудио кодек: АС3 | AAC
Видео: 1920x804 (2.40:1), 25.000 fps, MPEG-4 AVC ~4 828 kbps avg
Аудио №1: 48.0 kHz, AC3 Dolby Digital, 3/2 (L,C,R,l,r) + LFE ch, ~384 kbps | RUS
Аудио №2: 48.0 kHz, Advanced Audio Codec Low Complexity, 2/0 (L,R) ch, ~126 kbps | RUS
Аудио №3: 48.0 kHz, AC3 Dolby Digital, 3/2 (L,C,R,l,r) + LFE ch, ~448 kbps | ITA
Формат субтитров: UTF-8 Plain Text-Дата премьеры (мир): 7 апреля 2016
Дата премьеры (РФ): 30 августа 2018, «ПилотКино»- -

Media Info

-General
Уникальный идентификатор : 292508226250264833312326882010880806221 (0xDC0F09024F5DAC9A07B31CAF7E840D4D)
Полное имя : Troppo.napoletano.2016.WEB-DL.1080p.iTunes.RUS-ylnian.mkv
Формат : Matroska
Версия формата : Version 4
Размер файла : 3,94 Гбайт
Продолжительность : 1 ч. 37 м.
Общий поток : 5789 Кбит/сек
Название фильма : Troppo.napoletano.2016.WEB-DL.1080p.iTunes.RUS-ylnian
Дата кодирования : UTC 2018-12-14 20:51:04
Программа кодирования : mkvmerge v29.0.0 ('Like It Or Not') 64-bit
Библиотека кодирования : libebml v1.3.6 + libmatroska v1.4.9
Видео
Идентификатор : 1
Формат : AVC
Формат/Информация : Advanced Video Codec
Профиль формата : [email protected]
Настройки формата : CABAC / 5 Ref Frames
Параметр CABAC формата : Да
Параметр RefFrames формата : 5 кадров
Идентификатор кодека : V_MPEG4/ISO/AVC
Продолжительность : 1 ч. 37 м.
Битрейт : 4828 Кбит/сек
Ширина : 1920 пикселей
Высота : 804 пикселя
Соотношение сторон : 2,40:1
Режим частоты кадров : Постоянный
Частота кадров : 25,000 кадров/сек
Цветовое пространство : YUV
Субдискретизация насыщенности : 4:2:0
Битовая глубина : 8 бит
Тип развёртки : Прогрессивная
Бит/(Пиксели*Кадры) : 0.125
Размер потока : 3,29 Гбайт (83%)
Заголовок : Troppo.napoletano.2016.WEB-DL.1080p.iTunes.RUS-ylnian
Язык : Italian
Default : Да
Forced : Да
Цветовой диапазон : Limited
Основные цвета : BT.709
Характеристики трансфера : BT.709
Коэффициенты матрицы : BT.709
Аудио #1
Идентификатор : 2
Формат : AC-3
Формат/Информация : Audio Coding 3
Коммерческое название : Dolby Digital
Идентификатор кодека : A_AC3
Продолжительность : 1 ч. 37 м.
Вид битрейта : Постоянный
Битрейт : 384 Кбит/сек
Каналы : 6 каналов
Channel layout : L R C LFE Ls Rs
Частота : 48,0 КГц
Частота кадров : 31,250 кадров/сек (1536 SPF)
Битовая глубина : 16 бит
Метод сжатия : С потерями
Размер потока : 268 Мбайт (7%)
Заголовок : AC3
Язык : Russian
Default : Да
Forced : Да
Аудио #2
Идентификатор : 3
Формат : AAC LC
Формат/Информация : Advanced Audio Codec Low Complexity
Идентификатор кодека : A_AAC-2
Продолжительность : 1 ч. 37 м.
Битрейт : 126 Кбит/сек
Каналы : 2 канала
Channel layout : L R
Частота : 48,0 КГц
Частота кадров : 46,875 кадров/сек (1024 SPF)
Метод сжатия : С потерями
Размер потока : 87,9 Мбайт (2%)
Заголовок : AAC
Язык : Russian
Default : Нет
Forced : Нет
Аудио #3
Идентификатор : 4
Формат : AC-3
Формат/Информация : Audio Coding 3
Коммерческое название : Dolby Digital
Идентификатор кодека : A_AC3
Продолжительность : 1 ч. 37 м.
Вид битрейта : Постоянный
Битрейт : 448 Кбит/сек
Каналы : 6 каналов
Channel layout : L R C LFE Ls Rs
Частота : 48,0 КГц
Частота кадров : 31,250 кадров/сек (1536 SPF)
Битовая глубина : 16 бит
Метод сжатия : С потерями
Размер потока : 313 Мбайт (8%)
Язык : Italian
Default : Нет
Forced : Нет
Текст
Идентификатор : 5
Формат : UTF-8
Идентификатор кодека : S_TEXT/UTF8
Идентификатор кодека/Информация : UTF-8 Plain Text
Продолжительность : 1 ч. 5 м.
Битрейт : 5 бит/сек
ElementCount : 41
Размер потока : 2,46 Кбайт (0%)
Язык : Russian
Default : Да
Forced : Да
Меню
00:00:00.000 : it:1
00:08:14.680 : it:2
00:16:33.600 : it:3
00:24:37.440 : it:4
00:33:18.640 : it:5
00:41:30.520 : it:6
00:50:12.000 : it:7
00:58:18.240 : it:8
01:06:54.520 : it:9
01:15:35.160 : it:10
01:23:41.880 : it:11
01:30:53.160 : it:12-
-

Скриншоты

--
-Релиз от: -
[free-tor.info].t18411.torrent 
Торрент: Зарегистрирован [ 2018-12-21 16:07 ] · 3CF5B7C87FCCA5EDC697A766E55062CCF8354262

Скачать .torrent

Скачать .torrent

21 KB

Статус: проверено
.torrent скачан: 6 раз
Размер: 3,94 GB
Правила
Volodymyr(22-Дек-18)
Похожие темы

[Профиль] [ЛС]
Показать сообщения:    
Ответить на тему

Текущее время: 16-Июл 04:52

Часовой пояс: UTC + 4



Вы не можете начинать темы
Вы не можете отвечать на сообщения
Вы не можете редактировать свои сообщения
Вы не можете удалять свои сообщения
Вы не можете голосовать в опросах
Вы не можете прикреплять файлы к сообщениям
Вы можете скачивать файлы
Анализ веб сайтов Яндекс.Метрика