Лукас / Lukas (Жюльен Леклерк) [2018, боевик, BDRip 1080p от селезень | iTunes]

Ответить на тему
Статистика раздачи [Обновить пиров]
Размер:  7,86 GB   |    Зарегистрирован:  6 месяцев 25 дней   |    .torrent скачан:  5 раз
Сидов:  1206  [  0 KB/s  ]   Личеров:  45  [  0 KB/s  ]   Подробная статистика пиров
 
   
 
 
Автор Сообщение

Skorp10n ®

Оффлайн

 Активный раздающий 1 Активный раздающий 2
 Активный релизер 1000 Активный релизер 1500 Активный релизер 2000 Активный релизер 250 Активный релизер 3000 Активный релизер 500 Активный релизер 5000 Активный релизер Фильмов (1000) Активный релизер Фильмов (300) Активный релизер Фильмов (600) Активный Форумчанин 1 Активный Форумчанин 2 Активный Форумчанин 3 Активный Форумчанин 4 Друг трекера Карма 1000 Карма 1500 Карма 3000 Карма 500 Меценат Ни дня без новостей Орденосец 1 степени Орденосец 2 степени Орденосец 3 степени Почетный орденосец Почетный репортер С Новым 2016 Годом! С Новым 2017 Годом! С Новым 2018 Годом! С Новым 2019 Годом! Супер Мега Контер Квейк ТОП-10

Пол: Мужской

Стаж: 3 года 11 месяцев

Наличие запрета:

Сообщений: 10847

Откуда: Free-Tor.com

Отдача: не определено

Загрузка: не определено

Нажми

Создавать темы 22-Дек-2018 21:45

[Цитировать]

Информация о фильме- Название: Лукас
Оригинальное название: Lukas
Год выхода: 2018
Жанр: Боевик
Режиссер: Жюльен Леклерк
В ролях: Жан-Клод Ван Дамм, Свева Альвити, Сами Буажила, Сэм Лаувейк, Каарис, Кевин Янссенс, Алиса Версет, Карлос Шрам, Димитри Тивайос, Лорен Д`Илайа- -О фильме: На что ты готов ради дочери? Герою придется ответить на этот вопрос, столкнувшись лицом к лицу с полицией, мафией и Интерполом.-Страна: Франция, Бельгия
Студия: Labyrinthe Films, Atchafalaya Films, Umedia
Продолжительность: 01:34:35
Перевод: Профессиональный многоголосый | iTunes-Качество: BDRip 1080p
Видео: MPEG-4 AVC, 1920x804, 10 Mbit/s, 24 fps
Звук:
Аудио #01: 48 kHz, AC3, 5.1, 384 Kbps | iTunes | RUS |
Аудио #02: 48 kHz, DTS, 5.1, 1510 Kbps | Оригинал | ENG | -

Скриншоты

--
-

MI

-General
Unique ID : 294346137347803620828158295261637334837 (0xDD710105B435D0DD557DD32AF5755735)
Complete name : D:Video1111The.Bouncer.AKA.Lukas.2018.BDRip.1080p.seleZen.mkv
Format : Matroska
Format version : Version 4
File size : 7.86 GiB
Duration : 1 h 34 min
Overall bit rate : 11.9 Mb/s
Movie name : The Bouncer AKA Lukas 2018 from селезень
Encoded date : UTC 2018-12-22 11:52:59
Writing application : mkvmerge v29.0.0 ('Like It Or Not') 64-bit
Writing library : libebml v1.3.6 + libmatroska v1.4.9
Video
ID : 1
Format : AVC
Format/Info : Advanced Video Codec
Format profile : [email protected]
Format settings : CABAC / 5 Ref Frames
Format settings, CABAC : Yes
Format settings, ReFrames : 5 frames
Codec ID : V_MPEG4/ISO/AVC
Duration : 1 h 34 min
Bit rate : 10 000 kb/s
Width : 1 920 pixels
Height : 804 pixels
Display aspect ratio : 2.40:1
Frame rate mode : Constant
Frame rate : 24.000 FPS
Color space : YUV
Chroma subsampling : 4:2:0
Bit depth : 8 bits
Scan type : Progressive
Bits/(Pixel*Frame) : 0.270
Stream size : 6.61 GiB (84%)
Title : seleZen
Writing library : x264 core 148 r2705kMod 3f5ed56
Encoding settings : cabac=1 / ref=5 / deblock=1:-2:-2 / analyse=0x3:0x133 / me=umh / subme=11 / psy=1 / fade_compensate=0.00 / psy_rd=1.05:0.09 / mixed_ref=1 / me_range=48 / chroma_me=1 / trellis=2 / 8x8dct=1 / cqm=0 / deadzone=21,11 / fast_pskip=0 / chroma_qp_offset=-3 / threads=12 / lookahead_threads=2 / sliced_threads=0 / nr=0 / decimate=0 / interlaced=0 / bluray_compat=0 / constrained_intra=0 / fgo=0 / bframes=8 / b_pyramid=2 / b_adapt=2 / b_bias=0 / direct=3 / weightb=1 / open_gop=0 / weightp=2 / keyint=240 / keyint_min=24 / scenecut=40 / intra_refresh=0 / rc_lookahead=50 / rc=2pass / mbtree=0 / bitrate=10000 / ratetol=1.0 / qcomp=0.60 / qpmin=0 / qpmax=51 / qpstep=4 / cplxblur=20.0 / qblur=0.5 / vbv_maxrate=50000 / vbv_bufsize=62500 / nal_hrd=none / filler=0 / ip_ratio=1.40 / pb_ratio=1.30 / aq=3:0.80
Language : English
Default : Yes
Forced : No
Audio #1
ID : 2
Format : AC-3
Format/Info : Audio Coding 3
Commercial name : Dolby Digital
Codec ID : A_AC3
Duration : 1 h 34 min
Bit rate mode : Constant
Bit rate : 384 kb/s
Channel(s) : 6 channels
Channel layout : L R C LFE Ls Rs
Sampling rate : 48.0 kHz
Frame rate : 31.250 FPS (1536 SPF)
Bit depth : 16 bits
Compression mode : Lossy
Stream size : 260 MiB (3%)
Title : iTunes
Language : Russian
Service kind : Complete Main
Default : Yes
Forced : Yes
Audio #2
ID : 3
Format : DTS
Format/Info : Digital Theater Systems
Codec ID : A_DTS
Duration : 1 h 34 min
Bit rate mode : Constant
Bit rate : 1 509 kb/s
Channel(s) : 6 channels
Channel layout : C L R Ls Rs LFE
Sampling rate : 48.0 kHz
Frame rate : 93.750 FPS (512 SPF)
Bit depth : 24 bits
Compression mode : Lossy
Stream size : 1 021 MiB (13%)
Title : Original
Language : English
Default : No
Forced : No
Menu
00:00:00.000 : :Глава 01
00:06:59.833 : :Глава 02
00:12:25.958 : :Глава 03
00:18:58.417 : :Глава 04
00:25:26.583 : :Глава 05
00:33:09.125 : :Глава 06
00:40:01.000 : :Глава 07
00:44:06.625 : :Глава 08
00:51:24.458 : :Глава 09
00:56:45.708 : :Глава 10
01:03:19.958 : :Глава 11
01:09:58.542 : :Глава 12
01:15:33.917 : :Глава 13
01:21:31.500 : :Глава 14
01:29:18.292 : :Глава 15-
-Релиз от: -
[free-tor.info].t18417.torrent 
Торрент: Зарегистрирован [ 2018-12-22 21:45 ] · 493912B4F4C540385EC0DFD8AB75B5E39EE16365

Скачать .torrent

Скачать .torrent

12 KB

Статус: проверено
.torrent скачан: 5 раз
Размер: 7,86 GB
Правила
Похожие темы

[Профиль] [ЛС]
Показать сообщения:    
Ответить на тему

Текущее время: 17-Июл 02:18

Часовой пояс: UTC + 4



Вы не можете начинать темы
Вы не можете отвечать на сообщения
Вы не можете редактировать свои сообщения
Вы не можете удалять свои сообщения
Вы не можете голосовать в опросах
Вы не можете прикреплять файлы к сообщениям
Вы можете скачивать файлы
Анализ веб сайтов Яндекс.Метрика