Птичий короб / Bird Box (Сюзанна Бир) [2018, ужасы, фантастика, триллер, драма, WEBRip 1080p | Невафильм]

Ответить на тему
Статистика раздачи [Обновить пиров]
Размер:  8,47 GB   |    Зарегистрирован:  6 месяцев 23 дня   |    .torrent скачан:  15 раз
Сидов:  1275  [  0 KB/s  ]   Личеров:  98  [  0 KB/s  ]   Подробная статистика пиров
 
   
 
 
Автор Сообщение

Skorp10n ®

Оффлайн

 Активный раздающий 1 Активный раздающий 2
 Активный релизер 1000 Активный релизер 1500 Активный релизер 2000 Активный релизер 250 Активный релизер 3000 Активный релизер 500 Активный релизер 5000 Активный релизер Фильмов (1000) Активный релизер Фильмов (300) Активный релизер Фильмов (600) Активный Форумчанин 1 Активный Форумчанин 2 Активный Форумчанин 3 Активный Форумчанин 4 Друг трекера Карма 1000 Карма 1500 Карма 3000 Карма 500 Меценат Ни дня без новостей Орденосец 1 степени Орденосец 2 степени Орденосец 3 степени Почетный орденосец Почетный репортер С Новым 2016 Годом! С Новым 2017 Годом! С Новым 2018 Годом! С Новым 2019 Годом! Супер Мега Контер Квейк ТОП-10

Пол: Мужской

Стаж: 3 года 11 месяцев

Наличие запрета:

Сообщений: 10847

Откуда: Free-Tor.com

Отдача: не определено

Загрузка: не определено

Нажми

Создавать темы 23-Дек-2018 11:57

[Цитировать]

Информация о фильме- Название: Птичий короб
Оригинальное название: Bird Box
Год выпуска: 2018
Жанр: ужасы, фантастика, триллер, драма
Режиссер: Сюзанна Бир
В ролях: Сандра Буллок (Malorie), Треванте Роудс (Tom), Джон Малкович (Douglas), Сара Полсон (Jessica), Джеки Уивер (Cheryl), Роза Салазар (Lucy), Даниэль МакДональд (Olympia), Лил Релл (Charlie), Том Холландер (Gary), Машин Ган Келли (Felix), Б.Д. Вонг (Greg), Прюитт Тэйлор Винс (Rick)-О фильме: Пять лет назад мир погрузился в хаос: увидев нечто, люди кончают жизнь самоубийством. Женщина с двумя пятилетними детьми, услышав по радио о безопасном месте, отправляется на поиски выжившей общины и прихватывает с собой попугаев в коробке. Чтобы сохранить жизнь в этом новом мире, самое главное - не смотреть по сторонам и слушать, как птицы реагируют на приближающуюся опасность.- -MPAA: R - Лицам до 17 лет обязательно присутствие взрослого-Страна: США
Студия: Netflix, Chris Morgan Production, Bluegrass Films
Продолжительность: 02:03:47
Перевод: Профессиональный (дублированный) Невафильм-Файл-Качество: WEBRip 1080p | DEFLATE
Формат: Matroska
Видео: 1920x800 at 24.000 fps, MPEG-4 AVC, ~8500 kbps avg
Аудио#1: Russian: 48 kHz, E-AC3, 3/2 (L,C,R,l,r) + LFE ch, ~640 kbps avg |Дубляж, Невафильм|
Аудио#2: English: 48 kHz, E-AC3 + Atmos, 3/2 (L,C,R,l,r) + LFE ch, ~448 kbps avg
Субтитры: Russian (Forced, Full), English, English (SDH)-***Примечание: Без рекламы.
***Релиз: [email protected]-

MediaInfo

-Общее
Уникальный идентификатор : 292308418769518188267647886412769139544 (0xDBE88DBD5910FCB22E0B3A7EC0B41B58)
Полное имя : Bird.Box.2018.1080p.WEBRip.X264-EniaHD.mkv
Формат : Matroska
Версия формата : Version 4 / Version 2
Размер файла : 8,47 Гбайт
Продолжительность : 2 ч. 3 м.
Общий поток : 9792 Кбит/сек
Название фильма : Bird Box (2018) - EniaHD
Дата кодирования : UTC 2018-12-21 10:43:04
Программа кодирования : mkvmerge v29.0.0 ('Like It Or Not') 64-bit
Библиотека кодирования : libebml v1.3.6 + libmatroska v1.4.9
Видео
Идентификатор : 1
Формат : AVC
Формат/Информация : Advanced Video Codec
Профиль формата : [email protected]
Параметр CABAC формата : Да
Параметр ReFrames формата : 5 кадров
Идентификатор кодека : V_MPEG4/ISO/AVC
Продолжительность : 2 ч. 3 м.
Битрейт : 8509 Кбит/сек
Ширина : 1920 пикселей
Высота : 800 пикселей
Соотношение сторон : 2,40:1
Режим частоты кадров : Постоянный
Частота кадров : 24,000 кадра/сек
Цветовое пространство : YUV
Субдискретизация насыщенности : 4:2:0
Битовая глубина : 8 бит
Тип развёртки : Прогрессивная
Бит/(Пиксели*Кадры) : 0.231
Размер потока : 7,36 Гбайт (87%)
Библиотека кодирования : x264 core 157 r2932+2 (master: 303c484 / tmod: 1b88d0a) [X86_64]
Настройки программы : cabac=1 / ref=5 / deblock=1:-3:-3 / analyse=0x3:0x133 / me=umh / subme=11 / psy=1 / psy_rd=1.05:0.15 / mixed_ref=1 / me_range=48 / chroma_me=1 / trellis=2 / 8x8dct=1 / cqm=0 / deadzone=6,6 / fast_pskip=0 / chroma_qp_offset=-3 / threads=25 / lookahead_threads=6 / sliced_threads=0 / nr=0 / decimate=0 / interlaced=0 / bluray_compat=0 / constrained_intra=0 / bframes=10 / b_pyramid=2 / b_adapt=2 / b_bias=0 / direct=3 / weightb=1 / open_gop=0 / weightp=2 / keyint=250 / keyint_min=24 / scenecut=40 / intra_refresh=0 / rc_lookahead=60 / rc=crf / mbtree=0 / crf=17.0 / qcomp=0.70 / qpmin=0 / qpmax=69 / qpstep=4 / vbv_maxrate=62500 / vbv_bufsize=78125 / crf_max=0.0 / nal_hrd=none / filler=0 / ip_ratio=1.25 / pb_ratio=1.20 / aq=3:0.70
Default : Да
Forced : Нет
Аудио #1
Идентификатор : 2
Формат : E-AC-3
Формат/Информация : Audio Coding 3
Параметр Endianness формата : Big
Идентификатор кодека : A_EAC3
Продолжительность : 2 ч. 3 м.
Вид битрейта : Постоянный
Битрейт : 640 Кбит/сек
Каналы : 6 каналов
Расположение каналов : Front: L C R, Side: L R, LFE
Частота : 48,0 КГц
Метод сжатия : С потерями
Размер потока : 567 Мбайт (7%)
Заголовок : DUB, Nevafilm
Язык : Russian
Default : Да
Forced : Нет
Аудио #2
Идентификатор : 3
Формат : E-AC-3
Формат/Информация : Audio Coding 3
Параметр Endianness формата : Big
Идентификатор кодека : A_EAC3
Продолжительность : 2 ч. 3 м.
Вид битрейта : Постоянный
Битрейт : 448 Кбит/сек
Каналы : 6 каналов
Расположение каналов : Front: L C R, Side: L R, LFE
Частота : 48,0 КГц
Метод сжатия : С потерями
Размер потока : 397 Мбайт (5%)
Заголовок : Original
Язык : English
Default : Нет
Forced : Нет
Текст #1
Идентификатор : 4
Формат : UTF-8
Идентификатор кодека : S_TEXT/UTF8
Идентификатор кодека/Информация : UTF-8 Plain Text
Заголовок : Forced
Язык : Russian
Default : Да
Forced : Да
Текст #2
Идентификатор : 5
Формат : UTF-8
Идентификатор кодека : S_TEXT/UTF8
Идентификатор кодека/Информация : UTF-8 Plain Text
Заголовок : Full
Язык : Russian
Default : Нет
Forced : Нет
Текст #3
Идентификатор : 6
Формат : UTF-8
Идентификатор кодека : S_TEXT/UTF8
Идентификатор кодека/Информация : UTF-8 Plain Text
Язык : English
Default : Нет
Forced : Нет
Текст #4
Идентификатор : 7
Формат : UTF-8
Идентификатор кодека : S_TEXT/UTF8
Идентификатор кодека/Информация : UTF-8 Plain Text
Заголовок : SDH
Язык : English
Default : Нет
Forced : Нет-
-

Скриншоты

--
-
[free-tor.info].t18427.torrent 
Торрент: Зарегистрирован [ 2018-12-23 11:57 ] · 44ACD0425300CB9654AF42EC2FC4B749F0E2E9FF

Скачать .torrent

Скачать .torrent

170 KB

Статус: проверено
.torrent скачан: 15 раз
Размер: 8,47 GB
Правила
Похожие темы

[Профиль] [ЛС]
Показать сообщения:    
Ответить на тему

Текущее время: 16-Июл 04:20

Часовой пояс: UTC + 4



Вы не можете начинать темы
Вы не можете отвечать на сообщения
Вы не можете редактировать свои сообщения
Вы не можете удалять свои сообщения
Вы не можете голосовать в опросах
Вы не можете прикреплять файлы к сообщениям
Вы можете скачивать файлы
Анализ веб сайтов Яндекс.Метрика