Сорняки / Bad Seeds / Mauvaises herbes (Керон) [2018, комедия, WEB-DL 1080p | Невафильм]

Ответить на тему
Статистика раздачи [Обновить пиров]
Размер:  4,08 GB   |    Зарегистрирован:  6 месяцев 24 дня   |    .torrent скачан:  12 раз
Сидов:  154  [  0 KB/s  ]   Личеров:  6  [  0 KB/s  ]   Подробная статистика пиров
 
   
 
 
Автор Сообщение

Skorp10n ®

Оффлайн

 Активный раздающий 1 Активный раздающий 2
 Активный релизер 1000 Активный релизер 1500 Активный релизер 2000 Активный релизер 250 Активный релизер 3000 Активный релизер 500 Активный релизер 5000 Активный релизер Фильмов (1000) Активный релизер Фильмов (300) Активный релизер Фильмов (600) Активный Форумчанин 1 Активный Форумчанин 2 Активный Форумчанин 3 Активный Форумчанин 4 Друг трекера Карма 1000 Карма 1500 Карма 3000 Карма 500 Меценат Ни дня без новостей Орденосец 1 степени Орденосец 2 степени Орденосец 3 степени Почетный орденосец Почетный репортер С Новым 2016 Годом! С Новым 2017 Годом! С Новым 2018 Годом! С Новым 2019 Годом! Супер Мега Контер Квейк ТОП-10

Пол: Мужской

Стаж: 3 года 11 месяцев

Наличие запрета:

Сообщений: 10847

Откуда: Free-Tor.com

Отдача: не определено

Загрузка: не определено

Нажми

Создавать темы 23-Дек-2018 12:03

[Цитировать]

Информация о фильме- Название: Сорняки
Оригинальное название: Bad Seeds / Mauvaises herbes
Год выпуска: 2018
Жанр: комедия
Режиссер: Керон
В ролях: Керон (Wael), Катрин Денёв (Monique), Андре Дюссолье (Victor), Луизон Бливе (Shana), Adil Dehbi (Fabrice), Hakou Benosmane (Karim), Youssouf Wague (Ludo), Ouassima Zrouki (Nadia), Joseph Jovanovic (Jimmy), Leila Boumedjane (Sarah), Альбан Ленуар (Franck), Aymane Wardane (Waël (enfant))-О фильме: Ваэль (Керон), бывший беспризорник, зарабатывает на жизнь мелким мошенничеством со своей приёмной матерью и соучастницей Моник (Катрин Денёв). Когда этот нетрадиционный дуэт обманывает не того парня, Виктора (Андре Дюссолье), старого знакомого Моники, в настоящее время отвечающего за организацию поддержки для проблемных подростков, у него нет другого выбора, кроме как стать его временным секретарём и педагогом, чтобы искупить свою вину. Столкнувшись с шестью своенравными детьми, полными решимости испортить все его усилия, личная история Ваэля и его изобретательские уловки становятся ключом к завоеванию их доверия - и вскоре он понимает, что ему тоже дан шанс исправить своё прошлое и найти своё место в обществе.- -Страна: Франция
Студия: Païva Films, Mars Films, StudioCanal
Продолжительность: 01:44:30
Перевод: Профессиональный (дублированный) Невафильм-Файл-Качество: WEB-DL 1080p
Формат: Matroska
Видео: 1920x800 at 24.000 fps, MPEG-4 AVC, ~4700 kbps avg
Аудио#1: Russian: 48 kHz, AC3, 3/2 (L,C,R,l,r) + LFE ch, ~384 kbps avg |Дубляж, Невафильм|
Аудио#2: French: 48 kHz, AC3, 3/2 (L,C,R,l,r) + LFE ch, ~384 kbps avg
Субтитры: Russian (Forced, Full), French (Forced, SDH), English (Forced, Full)-***Примечание: Без рекламы.
***Релиз: [email protected]-

MediaInfo

-Общее
Уникальный идентификатор : 324042128334475536862774598885237818809 (0xF3C83E6B00BA47B2F44DB63132BB85B9)
Полное имя : Mauvaises.Herbes.2018.1080p.WEB-DL.DUB.EniaHD.mkv
Формат : Matroska
Версия формата : Version 4 / Version 2
Размер файла : 4,08 Гбайт
Продолжительность : 1 ч. 44 м.
Общий поток : 5587 Кбит/сек
Название фильма : Сорняки (2018)
Дата кодирования : UTC 2018-12-21 17:21:47
Программа кодирования : mkvmerge v28.2.0 ('The Awakening') 32-bit
Библиотека кодирования : libebml v1.3.6 + libmatroska v1.4.9
Attachment : Yes
Видео
Идентификатор : 1
Формат : AVC
Формат/Информация : Advanced Video Codec
Профиль формата : [email protected]
Параметр CABAC формата : Да
Параметр ReFrames формата : 4 кадра
Идентификатор кодека : V_MPEG4/ISO/AVC
Продолжительность : 1 ч. 44 м.
Битрейт : 4708 Кбит/сек
Ширина : 1920 пикселей
Высота : 800 пикселей
Соотношение сторон : 2,40:1
Режим частоты кадров : Постоянный
Частота кадров : 24,000 кадра/сек
Цветовое пространство : YUV
Субдискретизация насыщенности : 4:2:0
Битовая глубина : 8 бит
Тип развёртки : Прогрессивная
Бит/(Пиксели*Кадры) : 0.128
Размер потока : 3,44 Гбайт (84%)
Заголовок : Mauvaises.Herbes.2018.1080p.WEB-DL.DUB.EniaHD
Язык : French
Default : Да
Forced : Нет
Основные цвета : BT.709
Характеристики трансфера : BT.709
Коэффициенты матрицы : BT.709
Аудио #1
Идентификатор : 2
Формат : AC-3
Формат/Информация : Audio Coding 3
Расширение режима : CM (complete main)
Параметр Endianness формата : Big
Идентификатор кодека : A_AC3
Продолжительность : 1 ч. 44 м.
Вид битрейта : Постоянный
Битрейт : 384 Кбит/сек
Каналы : 6 каналов
Расположение каналов : Front: L C R, Side: L R, LFE
Частота : 48,0 КГц
Битовая глубина : 16 бит
Метод сжатия : С потерями
Размер потока : 287 Мбайт (7%)
Заголовок : AC3 5.1 @ 384 kbps - DUB, Невафильм
Язык : Russian
Default : Да
Forced : Нет
Аудио #2
Идентификатор : 3
Формат : AC-3
Формат/Информация : Audio Coding 3
Расширение режима : CM (complete main)
Параметр Endianness формата : Big
Идентификатор кодека : A_AC3
Продолжительность : 1 ч. 44 м.
Вид битрейта : Постоянный
Битрейт : 384 Кбит/сек
Каналы : 6 каналов
Расположение каналов : Front: L C R, Side: L R, LFE
Частота : 48,0 КГц
Битовая глубина : 16 бит
Метод сжатия : С потерями
Размер потока : 287 Мбайт (7%)
Заголовок : AC3 5.1 @ 384 kbps - Original
Язык : French
Default : Нет
Forced : Нет
Текст #1
Идентификатор : 4
Формат : UTF-8
Идентификатор кодека : S_TEXT/UTF8
Идентификатор кодека/Информация : UTF-8 Plain Text
Заголовок : Forced
Язык : Russian
Default : Да
Forced : Да
Текст #2
Идентификатор : 5
Формат : UTF-8
Идентификатор кодека : S_TEXT/UTF8
Идентификатор кодека/Информация : UTF-8 Plain Text
Заголовок : Full
Язык : Russian
Default : Нет
Forced : Нет
Текст #3
Идентификатор : 6
Формат : UTF-8
Идентификатор кодека : S_TEXT/UTF8
Идентификатор кодека/Информация : UTF-8 Plain Text
Заголовок : Forced
Язык : French
Default : Нет
Forced : Нет
Текст #4
Идентификатор : 7
Формат : UTF-8
Идентификатор кодека : S_TEXT/UTF8
Идентификатор кодека/Информация : UTF-8 Plain Text
Заголовок : Full SDH
Язык : French
Default : Нет
Forced : Нет
Текст #5
Идентификатор : 8
Формат : UTF-8
Идентификатор кодека : S_TEXT/UTF8
Идентификатор кодека/Информация : UTF-8 Plain Text
Заголовок : Forced
Язык : English
Default : Нет
Forced : Нет
Текст #6
Идентификатор : 9
Формат : UTF-8
Идентификатор кодека : S_TEXT/UTF8
Идентификатор кодека/Информация : UTF-8 Plain Text
Заголовок : Full
Язык : English
Default : Нет
Forced : Нет-
-

Скриншоты

--
-
[free-tor.info].t18429.torrent 
Торрент: Зарегистрирован [ 2018-12-23 12:03 ] · A85A00EE9EF9EEA889838E34EAF2380D29DAF013

Скачать .torrent

Скачать .torrent

11 KB

Статус: проверено
.torrent скачан: 12 раз
Размер: 4,08 GB
Правила
Похожие темы

[Профиль] [ЛС]
Показать сообщения:    
Ответить на тему

Текущее время: 17-Июл 02:50

Часовой пояс: UTC + 4



Вы не можете начинать темы
Вы не можете отвечать на сообщения
Вы не можете редактировать свои сообщения
Вы не можете удалять свои сообщения
Вы не можете голосовать в опросах
Вы не можете прикреплять файлы к сообщениям
Вы можете скачивать файлы
Анализ веб сайтов Яндекс.Метрика