Апгрейд / Upgrade (Ли Уоннелл) [2018, фантастика, боевик, триллер, детектив, криминал, BDRip-AVC от OlLanDGroup | iTunes]

Ответить на тему
Статистика раздачи [Обновить пиров]
Размер:  1,39 GB   |    Зарегистрирован:  5 месяцев 14 дней   |    .torrent скачан:  2 раза
Сидов:  105  [  0 KB/s  ]   Личеров:  3  [  0 KB/s  ]   Подробная статистика пиров
 
   
 
 
Автор Сообщение

Skorp10n ®

Оффлайн

 Активный раздающий 1 Активный раздающий 2
 Активный релизер 1000 Активный релизер 1500 Активный релизер 2000 Активный релизер 250 Активный релизер 3000 Активный релизер 500 Активный релизер 5000 Активный релизер Фильмов (1000) Активный релизер Фильмов (300) Активный релизер Фильмов (600) Активный Форумчанин 1 Активный Форумчанин 2 Активный Форумчанин 3 Активный Форумчанин 4 Друг трекера Карма 1000 Карма 1500 Карма 3000 Карма 500 Меценат Ни дня без новостей Орденосец 1 степени Орденосец 2 степени Орденосец 3 степени Почетный орденосец Почетный репортер С Новым 2016 Годом! С Новым 2017 Годом! С Новым 2018 Годом! С Новым 2019 Годом! Супер Мега Контер Квейк ТОП-10

Пол: Мужской

Стаж: 3 года 10 месяцев

Наличие запрета:

Сообщений: 10762

Откуда: Free-Tor.com

Отдача: не определено

Загрузка: не определено

Нажми

Создавать темы 02-Янв-2019 15:51

[Цитировать]

Апгрейд / Upgrade
«Not Man. Not Machine. More»
- Год выпуска: 2018
Страна: Австралия
Производство: Blumhouse Productions, Goalpost Pictures
Жанр: Фантастика, боевик, триллер, детектив, криминал-Режиссёр: Ли Уоннелл
В ролях: Логан Маршалл-Грин, Ричард Анастасиос, Роско Кэмпбелл, Ричард Коуторн, Линда Кроппер, Стив Даниелсен, Майкл М. Фостер, Бетти Гэбриел, Рена Галлахер, Харрисон Гилбертсон-Перевод: Дублированный | [iTunes]
Субтитры: Русские (форс., полные)
Реклама: Отсутствует-Описание: Действие разворачивается в ближайшем будущем, в котором разнообразные технологии участвуют во всех аспектах человеческой жизни. Но в этом технологичном будущем Грей — один из немногих людей, кто любит работать руками. Он восстанавливает и чинит старые автомобили. Однажды, возвращаясь от клиента, Грей с женой попадают в аварию, а после — в руки банды отморозков, в результате чего женщина погибает, а Грей оказывается парализованным ниже шеи. Тот самый богатый клиент предлагает несчастному поставить экспериментальный имплант Stem, который может полностью восстановить подвижность.- -Качество: BDRip-AVC | BDRemux | Upgrade 2018 REMUX BluRay 1080p AVC DTS-HD MA5 1-iFT
Продолжительность: 01:39:54-Формат: MKV
Видео кодек: MPEG-4 AVC
Аудио кодек: AC3
Видео: 1024x428 (2.40:1), 23,976 fps, x264 ~1 603 kbps avg, 0.153 bit/pixel
Аудио #1: 48 kHz, AC3 Dolby Digital, 3/2 (L,C,R,l,r) + LFE ch, ~384.00 kbps avg | RUS (iTunes)-Дата премьеры (мир): 10 марта 2018
Дата премьеры (РФ): 22 ноября 2018, «Экспонента»
Цифровой релиз: 1 января 2019, «Экспонента»
-Релиз от: Rip by: -

MediaInfo

-Общее
Уникальный идентификатор : 34512066498384130334397356522004677873 (0x19F6C8404DAC35B787CFB3F788FE04F1)
Полное имя : F:OlLanDGroupUpgrade.2018.BDRip(AVC).OlLanDGroup.mkv
Формат : Matroska
Версия формата : Version 4 / Version 2
Размер файла : 1,39 Гбайт
Продолжительность : 1 ч. 39 м.
Общий поток : 1989 Кбит/сек
Название фильма : Upgrade.2018 #TorpedoUK#
Дата кодирования : UTC 2019-01-01 12:36:04
Программа кодирования : mkvmerge v29.0.0 ('Like It Or Not') 64-bit
Библиотека кодирования : libebml v1.3.6 + libmatroska v1.4.9
Видео
Идентификатор : 1
Формат : AVC
Формат/Информация : Advanced Video Codec
Профиль формата : [email protected]
Параметр CABAC формата : Да
Параметр ReFrames формата : 10 кадров
Идентификатор кодека : V_MPEG4/ISO/AVC
Продолжительность : 1 ч. 39 м.
Битрейт : 1603 Кбит/сек
Ширина : 1024 пикселя
Высота : 428 пикселей
Соотношение сторон : 2,40:1
Режим частоты кадров : Постоянный
Частота кадров : 23,976 (24000/1001) кадра/сек
Цветовое пространство : YUV
Субдискретизация насыщенности : 4:2:0
Битовая глубина : 8 бит
Тип развёртки : Прогрессивная
Бит/(Пиксели*Кадры) : 0.153
Размер потока : 1,12 Гбайт (81%)
Библиотека кодирования : x264 core 146 r2538 121396c
Настройки программы : cabac=1 / ref=10 / deblock=1:-3:-3 / analyse=0x3:0x113 / me=umh / subme=11 / psy=1 / psy_rd=0.99:0.04 / mixed_ref=1 / me_range=48 / chroma_me=1 / trellis=2 / 8x8dct=1 / cqm=0 / deadzone=21,11 / fast_pskip=1 / chroma_qp_offset=-3 / threads=6 / lookahead_threads=1 / sliced_threads=0 / nr=0 / decimate=1 / interlaced=0 / bluray_compat=0 / constrained_intra=0 / bframes=10 / b_pyramid=2 / b_adapt=2 / b_bias=0 / direct=3 / weightb=1 / open_gop=0 / weightp=2 / keyint=240 / keyint_min=23 / scenecut=40 / intra_refresh=0 / rc_lookahead=40 / rc=2pass / mbtree=1 / bitrate=1603 / ratetol=1.0 / qcomp=0.60 / qpmin=0 / qpmax=69 / qpstep=4 / cplxblur=20.0 / qblur=0.5 / vbv_maxrate=50000 / vbv_bufsize=62500 / nal_hrd=none / filler=0 / ip_ratio=1.40 / aq=1:1.00
Язык : English
Default : Да
Forced : Нет
Аудио
Идентификатор : 2
Формат : AC-3
Формат/Информация : Audio Coding 3
Расширение режима : CM (complete main)
Параметр Endianness формата : Big
Идентификатор кодека : A_AC3
Продолжительность : 1 ч. 39 м.
Вид битрейта : Постоянный
Битрейт : 384 Кбит/сек
Каналы : 6 каналов
Расположение каналов : Front: L C R, Side: L R, LFE
Частота : 48,0 КГц
Частота кадров : 31,250 кадров/сек (1536 spf)
Битовая глубина : 16 бит
Метод сжатия : С потерями
Размер потока : 274 Мбайт (19%)
Заголовок : DUB [iTunes]
Язык : Russian
Default : Да
Forced : Нет
Текст #1
Идентификатор : 3
Формат : UTF-8
Идентификатор кодека : S_TEXT/UTF8
Идентификатор кодека/Информация : UTF-8 Plain Text
Продолжительность : 1 ч. 5 м.
Битрейт : 0 бит/сек
Count of elements : 8
Размер потока : 475 байт (0%)
Заголовок : Forced
Язык : Russian
Default : Да
Forced : Нет
Текст #2
Идентификатор : 4
Формат : UTF-8
Идентификатор кодека : S_TEXT/UTF8
Идентификатор кодека/Информация : UTF-8 Plain Text
Продолжительность : 1 ч. 32 м.
Битрейт : 88 бит/сек
Count of elements : 1290
Размер потока : 59,6 Кбайт (0%)
Заголовок : Full
Язык : Russian
Default : Нет
Forced : Нет
Меню
00:00:00.000 : en:00:00:00.000
00:05:38.296 : en:00:05:38.296
00:09:04.919 : en:00:09:04.919
00:15:26.759 : en:00:15:26.759
00:18:42.705 : en:00:18:42.705
00:21:43.636 : en:00:21:43.636
00:28:37.382 : en:00:28:37.382
00:34:42.622 : en:00:34:42.622
00:41:17.058 : en:00:41:17.058
00:47:55.623 : en:00:47:55.623
00:51:14.530 : en:00:51:14.530
00:56:58.457 : en:00:56:58.457
01:01:34.566 : en:01:01:34.566
01:05:22.168 : en:01:05:22.168
01:09:10.938 : en:01:09:10.938
01:16:13.194 : en:01:16:13.194
01:20:17.104 : en:01:20:17.104
01:25:41.928 : en:01:25:41.928
01:31:45.250 : en:01:31:45.250
01:33:57.632 : en:01:33:57.632-
-

Скриншоты

--
-
[free-tor.info].t18543.torrent 
Торрент: Зарегистрирован [ 2019-01-02 15:51 ] · 4A0205163B108D083D0FC236F98A1EE081466A7D

Скачать .torrent

Скачать .torrent

15 KB

Статус: проверено
.torrent скачан: 2 раз
Размер: 1,39 GB
Правила
Похожие темы

[Профиль] [ЛС]
Показать сообщения:    
Ответить на тему

Текущее время: 16-Июн 23:35

Часовой пояс: UTC + 4



Вы не можете начинать темы
Вы не можете отвечать на сообщения
Вы не можете редактировать свои сообщения
Вы не можете удалять свои сообщения
Вы не можете голосовать в опросах
Вы не можете прикреплять файлы к сообщениям
Вы можете скачивать файлы
Анализ веб сайтов Яндекс.Метрика