Апгрейд / Upgrade (Ли Уоннелл) [2018, фантастика, боевик, триллер, детектив, криминал, BDRip 1080p от qqss44 & MegaPeer | iTunes]

Ответить на тему
Статистика раздачи [Обновить пиров]
Размер:  5,5 GB   |    Зарегистрирован:  6 месяцев 18 дней   |    .torrent скачан:  31 раз
Сидов:  505  [  0 KB/s  ]   Личеров:  18  [  0 KB/s  ]   Подробная статистика пиров
 
   
 
 
Автор Сообщение

Skorp10n ®

Оффлайн

 Активный раздающий 1 Активный раздающий 2
 Активный релизер 1000 Активный релизер 1500 Активный релизер 2000 Активный релизер 250 Активный релизер 3000 Активный релизер 500 Активный релизер 5000 Активный релизер Фильмов (1000) Активный релизер Фильмов (300) Активный релизер Фильмов (600) Активный Форумчанин 1 Активный Форумчанин 2 Активный Форумчанин 3 Активный Форумчанин 4 Друг трекера Карма 1000 Карма 1500 Карма 3000 Карма 500 Меценат Ни дня без новостей Орденосец 1 степени Орденосец 2 степени Орденосец 3 степени Почетный орденосец Почетный репортер С Новым 2016 Годом! С Новым 2017 Годом! С Новым 2018 Годом! С Новым 2019 Годом! Супер Мега Контер Квейк ТОП-10

Пол: Мужской

Стаж: 3 года 11 месяцев

Наличие запрета:

Сообщений: 11003

Откуда: Free-Tor.com

Отдача: не определено

Загрузка: не определено

Нажми

Создавать темы 02-Янв-2019 18:49

[Цитировать]

Информация о фильме- Название: Апгрейд
Оригинальное название: Upgrade
Год выпуска: 2018
Жанр: Фантастика, боевик, триллер, детектив, криминал
Режиссер: Ли Уоннелл
В ролях: Логан Маршалл-Грин, Ричард Анастасиос, Роско Кэмпбелл, Ричард Коуторн, Линда Кроппер, Стив Даниелсен, Майкл М. Фостер, Бетти Гэбриел, Рена Галлахер, Харрисон Гилбертсон-О фильме:-Действие разворачивается в ближайшем будущем, в котором разнообразные технологии участвуют во всех аспектах человеческой жизни. Но в этом технологичном будущем Грей — один из немногих людей, кто любит работать руками. Он восстанавливает и чинит старые автомобили. Однажды, возвращаясь от клиента, Грей с женой попадают в аварию, а после — в руки банды отморозков, в результате чего женщина погибает, а Грей оказывается парализованным ниже шеи. Тот самый богатый клиент предлагает несчастному поставить экспериментальный имплант Stem, который может полностью восстановить подвижность.- -Страна: Австралия
Студия: Blumhouse Productions, Goalpost Pictures
Продолжительность: 01:39:54
Перевод: Дублированный | iTunes-Файл-Формат: MKV, BDRip 1080p
Видео: MPEG-4 AVC, 7500 Кбит/с, 1920x804
Aудио#1: [RUS] AC3 | 48 KHz | 5.1 (Front: L С R Side: L R) + LFE | ~640 kbps
Субтитры: Русские форсированные и полные
Релиз от:
-

Скриншоты

--
-

МИ

-Общее
Уникальный идентификатор : 245642854715988207249029369337481054780 (0xB8CD17CBB79D821CA1D9D309677CCA3C)
Полное имя : H:Upgrade.(2018).BDRip-1080p.MegaPeer.(qqss44).mkv
Формат : Matroska
Версия формата : Version 2
Размер файла : 5,50 Гбайт
Продолжительность : 1 ч. 39 м.
Общий поток : 7885 Кбит/сек
Название фильма : Upgrade.(2018).BDRip-1080p.MegaPeer.(qqss44)
Дата кодирования : UTC 2019-01-02 13:25:15
Программа кодирования : mkvmerge v7.8.0 ('River Man') 32bit built on Apr 3 2015 12:11:22
Библиотека кодирования : libebml v1.3.1 + libmatroska v1.4.2
Видео
Идентификатор : 1
Формат : AVC
Формат/Информация : Advanced Video Codec
Профиль формата : [email protected]
Параметр CABAC формата : Да
Параметр ReFrames формата : 5 кадров
Идентификатор кодека : V_MPEG4/ISO/AVC
Продолжительность : 1 ч. 39 м.
Битрейт : 7500 Кбит/сек
Ширина : 1920 пикселей
Высота : 804 пикселя
Соотношение сторон : 2,40:1
Режим частоты кадров : Постоянный
Частота кадров : 23,976 (24000/1001) кадра/сек
Цветовое пространство : YUV
Субдискретизация насыщенности : 4:2:0
Битовая глубина : 8 бит
Тип развёртки : Прогрессивная
Бит/(Пиксели*Кадры) : 0.203
Размер потока : 5,12 Гбайт (93%)
Библиотека кодирования : x264 core 152 r2851 ba24899
Настройки программы : cabac=1 / ref=5 / deblock=1:-3:-3 / analyse=0x3:0x113 / me=umh / subme=11 / psy=1 / psy_rd=1.00:0.00 / mixed_ref=1 / me_range=32 / chroma_me=1 / trellis=2 / 8x8dct=1 / cqm=0 / deadzone=21,11 / fast_pskip=0 / chroma_qp_offset=-2 / threads=12 / lookahead_threads=3 / sliced_threads=0 / nr=0 / decimate=0 / interlaced=0 / bluray_compat=0 / constrained_intra=0 / bframes=10 / b_pyramid=2 / b_adapt=2 / b_bias=0 / direct=3 / weightb=1 / open_gop=0 / weightp=2 / keyint=250 / keyint_min=23 / scenecut=40 / intra_refresh=0 / rc_lookahead=40 / rc=2pass / mbtree=0 / bitrate=7500 / ratetol=1.0 / qcomp=0.70 / qpmin=0 / qpmax=69 / qpstep=4 / cplxblur=20.0 / qblur=0.5 / vbv_maxrate=50000 / vbv_bufsize=62500 / nal_hrd=none / filler=0 / ip_ratio=1.40 / pb_ratio=1.30 / aq=3:0.70
Язык : English
Default : Да
Forced : Нет
Аудио
Идентификатор : 2
Формат : AC-3
Формат/Информация : Audio Coding 3
Расширение режима : CM (complete main)
Параметр Endianness формата : Big
Идентификатор кодека : A_AC3
Продолжительность : 1 ч. 39 м.
Вид битрейта : Постоянный
Битрейт : 384 Кбит/сек
Каналы : 6 каналов
Расположение каналов : Front: L C R, Side: L R, LFE
Частота : 48,0 КГц
Частота кадров : 31,250 кадров/сек (1536 spf)
Метод сжатия : С потерями
Размер потока : 274 Мбайт (5%)
Заголовок : DUB
Язык : Russian
Default : Да
Forced : Нет
Текст #1
Идентификатор : 3
Формат : UTF-8
Идентификатор кодека : S_TEXT/UTF8
Идентификатор кодека/Информация : UTF-8 Plain Text
Заголовок : Forced
Язык : Russian
Default : Да
Forced : Нет
Текст #2
Идентификатор : 4
Формат : UTF-8
Идентификатор кодека : S_TEXT/UTF8
Идентификатор кодека/Информация : UTF-8 Plain Text
Заголовок : Full
Язык : Russian
Default : Нет
Forced : Нет
Меню
00:00:00.000 : en:00:00:00.000
00:05:38.296 : en:00:05:38.296
00:09:04.919 : en:00:09:04.919
00:15:26.759 : en:00:15:26.759
00:18:42.705 : en:00:18:42.705
00:21:43.636 : en:00:21:43.636
00:28:37.382 : en:00:28:37.382
00:34:42.622 : en:00:34:42.622
00:41:17.058 : en:00:41:17.058
00:47:55.623 : en:00:47:55.623
00:51:14.530 : en:00:51:14.530
00:56:58.457 : en:00:56:58.457
01:01:34.566 : en:01:01:34.566
01:05:22.168 : en:01:05:22.168
01:09:10.938 : en:01:09:10.938
01:16:13.194 : en:01:16:13.194
01:20:17.104 : en:01:20:17.104
01:25:41.928 : en:01:25:41.928
01:31:45.250 : en:01:31:45.250
01:33:57.632 : en:01:33:57.632-
-
x264 [info]: frame I:970 Avg QP:12.97 size:202130
x264 [info]: frame P:32901 Avg QP:15.17 size: 71735
x264 [info]: frame B:109854 Avg QP:17.55 size: 27878
-
[free-tor.info].t18561.torrent 
Торрент: Зарегистрирован [ 2019-01-02 18:49 ] · 574AB2C902078C6BAB91D570E84262E6D5682D5B

Скачать .torrent

Скачать .torrent

29 KB

Статус: проверено
.torrent скачан: 31 раз
Размер: 5,5 GB
Правила
SanekBest1(02-Янв-19)
Похожие темы

[Профиль] [ЛС]
Показать сообщения:    
Ответить на тему

Текущее время: 20-Июл 19:38

Часовой пояс: UTC + 4



Вы не можете начинать темы
Вы не можете отвечать на сообщения
Вы не можете редактировать свои сообщения
Вы не можете удалять свои сообщения
Вы не можете голосовать в опросах
Вы не можете прикреплять файлы к сообщениям
Вы можете скачивать файлы
Анализ веб сайтов Яндекс.Метрика