Ограбление: Код 211 / 211 (Йорк Шеклтон) [2018, боевик, драма, история, BDRip 1080p | iTunes]

Ответить на тему
Статистика раздачи [Обновить пиров]
Размер:  10,62 GB   |    Зарегистрирован:  6 месяцев 13 дней   |    .torrent скачан:  4 раза
Сидов:  300  [  0 KB/s  ]   Личеров:  22  [  0 KB/s  ]   Подробная статистика пиров
 
   
 
 
Автор Сообщение

Skorp10n ®

Оффлайн

 Активный раздающий 1 Активный раздающий 2
 Активный релизер 1000 Активный релизер 1500 Активный релизер 2000 Активный релизер 250 Активный релизер 3000 Активный релизер 500 Активный релизер 5000 Активный релизер Фильмов (1000) Активный релизер Фильмов (300) Активный релизер Фильмов (600) Активный Форумчанин 1 Активный Форумчанин 2 Активный Форумчанин 3 Активный Форумчанин 4 Друг трекера Карма 1000 Карма 1500 Карма 3000 Карма 500 Меценат Ни дня без новостей Орденосец 1 степени Орденосец 2 степени Орденосец 3 степени Почетный орденосец Почетный репортер С Новым 2016 Годом! С Новым 2017 Годом! С Новым 2018 Годом! С Новым 2019 Годом! Супер Мега Контер Квейк ТОП-10

Пол: Мужской

Стаж: 3 года 11 месяцев

Наличие запрета:

Сообщений: 10847

Откуда: Free-Tor.com

Отдача: не определено

Загрузка: не определено

Нажми

Создавать темы 03-Янв-2019 01:16

[Цитировать]

Информация о фильме- Название: Код 211
Оригинальное название: 211
Год выпуска: 2018
Жанр: боевик, драма, история
Режиссер: Йорк Шеклтон
В ролях: Николас Кейдж, Софи Скелтон, Майкл Рейни мл., Дуэйн Камерон, Уэстон Кейдж, Кори Хардрикт, Ори Феффер, Марк Баснайт, Аманда Серни, Майкл Беллисарио-О фильме: Полицейский код 211 — ограбление банка. Такой сигнал получает офицер Чандлер во время своей смены. Он бросается на место событий, чтобы не позволить преступникам сбежать с добычей.- -Страна: США
Студия: Millennium Films, 211 Productions, Nu Image Bulgaria
Продолжительность: 01:27:05
Перевод: Профессиональный (дублированный) iTunes-Файл-Формат: Matroska
Качество: BDRip 1080p
Видео: MPEG-4 AVC, 1920x1040, 23.976 fps, 15600 kbps
Аудио RUS: AC3, 6 ch, 384 kbps
Аудио ENG: DTS, 6 ch, 1509 kbps
Субтитры: Английские-***Примечание: Без рекламы.
***Релиз: Селезень.-

МИ

-General
Unique ID : 208395593295973834420030018027615862751 (0x9CC78805F1CB438F4F06FD031B36BFDF)
Complete name : D:Video111211.2018.BDRip.1080p.seleZen.mkv
Format : Matroska
Format version : Version 4
File size : 10.6 GiB
Duration : 1 h 27 min
Overall bit rate : 17.5 Mb/s
Movie name : 211 2018 from селезень
Encoded date : UTC 2019-01-02 20:50:26
Writing application : mkvmerge v29.0.0 ('Like It Or Not') 64-bit
Writing library : libebml v1.3.6 + libmatroska v1.4.9
Video
ID : 1
Format : AVC
Format/Info : Advanced Video Codec
Format profile : [email protected]
Format settings : CABAC / 4 Ref Frames
Format settings, CABAC : Yes
Format settings, ReFrames : 4 frames
Codec ID : V_MPEG4/ISO/AVC
Duration : 1 h 27 min
Bit rate : 15.6 Mb/s
Width : 1 920 pixels
Height : 1 040 pixels
Display aspect ratio : 1.85:1
Frame rate mode : Constant
Frame rate : 23.976 (24000/1001) FPS
Color space : YUV
Chroma subsampling : 4:2:0
Bit depth : 8 bits
Scan type : Progressive
Bits/(Pixel*Frame) : 0.325
Stream size : 9.47 GiB (89%)
Title : CHD
Writing library : x264 core 155 r2867+74 66b5600 t_mod_Custom_2 [[email protected] X86_64]
Encoding settings : cabac=1 / ref=4 / deblock=1:-3:-3 / analyse=0x3:0x113 / me=umh / subme=10 / psy=1 / fade_compensate=0.00 / psy_rd=0.90:0.10 / mixed_ref=1 / me_range=48 / chroma_me=1 / trellis=2 / 8x8dct=1 / cqm=0 / deadzone=21,11 / fast_pskip=0 / chroma_qp_offset=-2 / threads=12 / lookahead_threads=2 / sliced_threads=0 / nr=0 / decimate=1 / interlaced=0 / bluray_compat=0 / constrained_intra=0 / fgo=0 / bframes=8 / b_pyramid=2 / b_adapt=2 / b_bias=0 / direct=3 / weightb=1 / open_gop=0 / weightp=2 / keyint=250 / keyint_min=23 / scenecut=40 / intra_refresh=0 / rc_lookahead=40 / rc=crf / mbtree=0 / crf=20.0000 / qcomp=0.70 / qpmin=0:0:0 / qpmax=69:69:69 / qpstep=4 / vbv_maxrate=35000 / vbv_bufsize=35000 / crf_max=0.0 / nal_hrd=none / filler=0 / ip_ratio=1.40 / pb_ratio=1.30 / aq=3:0.90 / aq-sensitivity=10.00 / aq-factor=1.00:1.00:1.00 / aq2=0 / aq3=2:[0.50:0.50]:[0.50:0.50]:[0.50:0.50]:[0.50:0.50] / aq3-sensitivity=10.00 / aq3-factor=[1.00:1.00]:[1.00:1.00]:[1.00:1.00] / aq3-boundary=192:64:24
Language : English
Default : Yes
Forced : No
Color range : Limited
Matrix coefficients : BT.709
Audio #1
ID : 2
Format : AC-3
Format/Info : Audio Coding 3
Commercial name : Dolby Digital
Codec ID : A_AC3
Duration : 1 h 27 min
Bit rate mode : Constant
Bit rate : 384 kb/s
Channel(s) : 6 channels
Channel layout : L R C LFE Ls Rs
Sampling rate : 48.0 kHz
Frame rate : 31.250 FPS (1536 SPF)
Bit depth : 16 bits
Compression mode : Lossy
Stream size : 239 MiB (2%)
Title : iTunes
Language : Russian
Service kind : Complete Main
Default : Yes
Forced : Yes
Audio #2
ID : 3
Format : DTS
Format/Info : Digital Theater Systems
Codec ID : A_DTS
Duration : 1 h 27 min
Bit rate mode : Constant
Bit rate : 1 509 kb/s
Channel(s) : 6 channels
Channel layout : C L R Ls Rs LFE
Sampling rate : 48.0 kHz
Frame rate : 93.750 FPS (512 SPF)
Bit depth : 24 bits
Compression mode : Lossy
Stream size : 940 MiB (9%)
Title : Original
Language : English
Default : No
Forced : No
Text
ID : 4
Format : UTF-8
Codec ID : S_TEXT/UTF8
Codec ID/Info : UTF-8 Plain Text
Duration : 1 h 21 min
Bit rate : 67 b/s
Count of elements : 1005
Stream size : 40.1 KiB (0%)
Title : SDH
Language : English
Default : No
Forced : No
Menu
00:00:00.000 : en:00:00:00.000
00:05:50.725 : en:00:05:50.725
00:10:14.864 : en:00:10:14.864
00:16:36.370 : en:00:16:36.370
00:22:31.308 : en:00:22:31.308
00:27:17.219 : en:00:27:17.219
00:32:44.713 : en:00:32:44.713
00:38:48.201 : en:00:38:48.201
00:44:38.926 : en:00:44:38.926
00:49:44.607 : en:00:49:44.607
00:54:29.475 : en:00:54:29.475
01:00:32.170 : en:01:00:32.170
01:05:32.971 : en:01:05:32.971
01:11:29.327 : en:01:11:29.327
01:16:34.006 : en:01:16:34.006
01:22:27.192 : en:01:22:27.192-
-

Скриншоты

--
-
[free-tor.info].t18565.torrent 
Торрент: Зарегистрирован [ 2019-01-03 01:16 ] · 8C4513CDF40AF23D5E7F113B071B57B37B8B69C3

Скачать .torrent

Скачать .torrent

14 KB

Статус: проверено
.torrent скачан: 4 раз
Размер: 10,62 GB
Правила
Похожие темы

[Профиль] [ЛС]
Показать сообщения:    
Ответить на тему

Текущее время: 16-Июл 04:23

Часовой пояс: UTC + 4



Вы не можете начинать темы
Вы не можете отвечать на сообщения
Вы не можете редактировать свои сообщения
Вы не можете удалять свои сообщения
Вы не можете голосовать в опросах
Вы не можете прикреплять файлы к сообщениям
Вы можете скачивать файлы
Анализ веб сайтов Яндекс.Метрика