Разлом / Землетрясение / The Quake / Skjelvet (Йон Андреас Андерсен) [2018, триллер, драма, боевик, BDRip 1080p | iTunes]

Ответить на тему
Статистика раздачи [Обновить пиров]
Размер:  10,11 GB   |    Зарегистрирован:  6 месяцев 11 дней   |    .torrent скачан:  35 раз
Сидов:  423  [  0 KB/s  ]   Личеров:  35  [  0 KB/s  ]   Подробная статистика пиров
 
   
 
 
Автор Сообщение

Skorp10n ®

Оффлайн

 Активный раздающий 1 Активный раздающий 2
 Активный релизер 1000 Активный релизер 1500 Активный релизер 2000 Активный релизер 250 Активный релизер 3000 Активный релизер 500 Активный релизер 5000 Активный релизер Фильмов (1000) Активный релизер Фильмов (300) Активный релизер Фильмов (600) Активный Форумчанин 1 Активный Форумчанин 2 Активный Форумчанин 3 Активный Форумчанин 4 Друг трекера Карма 1000 Карма 1500 Карма 3000 Карма 500 Меценат Ни дня без новостей Орденосец 1 степени Орденосец 2 степени Орденосец 3 степени Почетный орденосец Почетный репортер С Новым 2016 Годом! С Новым 2017 Годом! С Новым 2018 Годом! С Новым 2019 Годом! Супер Мега Контер Квейк ТОП-10

Пол: Мужской

Стаж: 3 года 11 месяцев

Наличие запрета:

Сообщений: 10847

Откуда: Free-Tor.com

Отдача: не определено

Загрузка: не определено

Нажми

Создавать темы 03-Янв-2019 01:40

[Цитировать]

Информация о фильме- Название: Разлом / Землетрясение
Оригинальное название: The Quake / Skjelvet
Год выпуска: 2018
Жанр: триллер, драма, боевик
Режиссер: Йон Андреас Андерсен
В ролях: Кристоффер Йонер, Эни Даль Торп, Хан Тран, Йонас Хофф Офтебро, Эдит Хогенруд-Сэнд, Катрин Торборг Йохансен, Равдип Син Бавджа, Тина Шей, Стиг Р. Амдам-О фильме: В 1904 году норвежская столица пострадала от землетрясения силой 5,4 балла по шкале Рихтера. Стихия привела к разрушениям в городе, но ни один человек не пострадал. В настоящее время геологические исследования показывают, что в Осло почти еженедельно происходят слабые подземные толчки, которые могут служить предвестниками ещё более сильного землетрясения.- -Страна: Норвегия
Студия: Fantefilm, Gimpville AS
Продолжительность: 01:47:45
Перевод: Профессиональный (дублированный) iTunes-Файл-Формат: Matroska
Качество: BDRip 1080p
Видео: MPEG-4 AVC, 1920x808, 23.976 fps, 11500 kbps
Аудио#1: Russian: AC3, 6 ch, 384 kbps
Аудио#2: Norwegian: DTS, 6 ch, 1509 kbps
Субтитры: None-***Примечание: Без рекламы.-

Media Info

-General
Unique ID : 12488447570600876050617873486472517622 (0x9653000E2B600C36DCFB139B25B97F6)
Complete name : Skjelvet.BDRip.1080p.mkv
Format : Matroska
Format version : Version 4 / Version 2
File size : 10.1 GiB
Duration : 1 h 47 min
Overall bit rate : 13.4 Mb/s
Encoded date : UTC 2019-01-02 21:15:26
Writing application : mkvmerge v29.0.0 ('Like It Or Not') 64-bit
Writing library : libebml v1.3.6 + libmatroska v1.4.9
Video
ID : 1
Format : AVC
Format/Info : Advanced Video Codec
Format profile : [email protected]
Format settings, CABAC : Yes
Format settings, RefFrames : 7 frames
Codec ID : V_MPEG4/ISO/AVC
Duration : 1 h 47 min
Bit rate : 11.5 Mb/s
Width : 1 920 pixels
Height : 808 pixels
Display aspect ratio : 2.40:1
Frame rate mode : Constant
Frame rate : 24.000 FPS
Color space : YUV
Chroma subsampling : 4:2:0
Bit depth : 8 bits
Scan type : Progressive
Bits/(Pixel*Frame) : 0.310
Stream size : 8.69 GiB (86%)
Title : RAPiDCOWS
Writing library : x264 core 157 r2935 545de2f
Encoding settings : cabac=1 / ref=7 / deblock=1:0:0 / analyse=0x3:0x113 / me=umh / subme=9 / psy=1 / psy_rd=1.00:0.00 / mixed_ref=1 / me_range=16 / chroma_me=1 / trellis=1 / 8x8dct=1 / cqm=0 / deadzone=21,11 / fast_pskip=1 / chroma_qp_offset=-2 / threads=18 / lookahead_threads=1 / sliced_threads=0 / nr=0 / decimate=1 / interlaced=0 / bluray_compat=0 / constrained_intra=0 / bframes=3 / b_pyramid=2 / b_adapt=1 / b_bias=0 / direct=3 / weightb=1 / open_gop=0 / weightp=2 / keyint=240 / keyint_min=24 / scenecut=40 / intra_refresh=0 / rc_lookahead=50 / rc=2pass / mbtree=1 / bitrate=11543 / ratetol=1.0 / qcomp=0.60 / qpmin=0 / qpmax=69 / qpstep=4 / cplxblur=20.0 / qblur=0.5 / ip_ratio=1.40 / aq=1:1.00
Language : Norwegian
Default : Yes
Forced : No
Audio #1
ID : 2
Format : AC-3
Format/Info : Audio Coding 3
Format settings, Endianness : Big
Codec ID : A_AC3
Duration : 1 h 47 min
Bit rate mode : Constant
Bit rate : 384 kb/s
Channel(s) : 6 channels
Channel positions : Front: L C R, Side: L R, LFE
Sampling rate : 48.0 kHz
Frame rate : 31.250 FPS (1536 SPF)
Bit depth : 16 bits
Compression mode : Lossy
Stream size : 296 MiB (3%)
Title : iTunes
Language : Russian
Service kind : Complete Main
Default : Yes
Forced : Yes
Audio #2
ID : 3
Format : DTS
Format/Info : Digital Theater Systems
Mode : 16
Format settings, Endianness : Big
Codec ID : A_DTS
Duration : 1 h 47 min
Bit rate mode : Constant
Bit rate : 1 509 kb/s
Channel(s) : 6 channels
Channel positions : Front: L C R, Side: L R, LFE
Sampling rate : 48.0 kHz
Frame rate : 93.750 FPS (512 SPF)
Bit depth : 24 bits
Compression mode : Lossy
Delay relative to video : 7 ms
Stream size : 1.14 GiB (11%)
Title : Original
Language : Norwegian
Default : No
Forced : No
Menu
00:00:00.000 : en:00:00:00.000
00:10:00.000 : en:00:10:00.000
00:20:00.000 : en:00:20:00.000
00:30:00.000 : en:00:30:00.000
00:40:00.000 : en:00:40:00.000
00:50:00.000 : en:00:50:00.000
01:00:00.000 : en:01:00:00.000
01:10:00.000 : en:01:10:00.000
01:20:00.000 : en:01:20:00.000
01:30:00.000 : en:01:30:00.000
01:40:00.000 : en:01:40:00.000-
-

Скриншоты

--
-
[free-tor.info].t18567.torrent 
Торрент: Зарегистрирован [ 2019-01-04 12:32 ] · 440323038380A2A382360FFDA487344AAE581C6B

Скачать .torrent

Скачать .torrent

14 KB

Статус: проверено
.torrent скачан: 35 раз
Размер: 10,11 GB
Правила
Похожие темы

[Профиль] [ЛС]
Показать сообщения:    
Ответить на тему

Текущее время: 16-Июл 04:32

Часовой пояс: UTC + 4



Вы не можете начинать темы
Вы не можете отвечать на сообщения
Вы не можете редактировать свои сообщения
Вы не можете удалять свои сообщения
Вы не можете голосовать в опросах
Вы не можете прикреплять файлы к сообщениям
Вы можете скачивать файлы
Анализ веб сайтов Яндекс.Метрика