Клуб миллиардеров / Billionaire Boys Club (Джеймс Кокс) [2018, триллер, драма, биография, BDRip 1080p от OlLanDGroup | Лицензия]

Ответить на тему
Статистика раздачи [Обновить пиров]
Размер:  7,26 GB   |    Зарегистрирован:  6 месяцев 10 дней   |    .torrent скачан:  7 раз
Сидов:  219  [  0 KB/s  ]   Личеров:  19  [  0 KB/s  ]   Подробная статистика пиров
 
   
 
 
Автор Сообщение

Skorp10n ®

Оффлайн

 Активный раздающий 1 Активный раздающий 2
 Активный релизер 1000 Активный релизер 1500 Активный релизер 2000 Активный релизер 250 Активный релизер 3000 Активный релизер 500 Активный релизер 5000 Активный релизер Фильмов (1000) Активный релизер Фильмов (300) Активный релизер Фильмов (600) Активный Форумчанин 1 Активный Форумчанин 2 Активный Форумчанин 3 Активный Форумчанин 4 Друг трекера Карма 1000 Карма 1500 Карма 3000 Карма 500 Меценат Ни дня без новостей Орденосец 1 степени Орденосец 2 степени Орденосец 3 степени Почетный орденосец Почетный репортер С Новым 2016 Годом! С Новым 2017 Годом! С Новым 2018 Годом! С Новым 2019 Годом! Супер Мега Контер Квейк ТОП-10

Пол: Мужской

Стаж: 3 года 11 месяцев

Наличие запрета:

Сообщений: 10847

Откуда: Free-Tor.com

Отдача: не определено

Загрузка: не определено

Нажми

Создавать темы 07-Янв-2019 00:16

[Цитировать]

Клуб миллиардеров / Billionaire Boys Club
«Скажи им правду, если хочешь обмануть»
- Год выпуска: 2018
Страна: США
Производство: Armory Films, Oriah Entertainment, Tibet Born Pictures Limited, Vantage Entertainment
Жанр: Триллер, драма, биография-Режиссёр: Джеймс Кокс
В ролях: Тэрон Эджертон, Эмма Робертс, Сьюки Уотерхаус, Кевин Спейси, Кэри Элвис, Билли Лурд, Энсел Элгорт, Джереми Ирвин, Боким Вудбайн, Розанна Аркетт-Перевод: Дублированный | Лицензия
Субтитры: Русские (полные), Английские (SDH)
Реклама: Отсутствует-Описание: Лос-Анджелес начала 1980-х. Компания молодых людей решает провернуть аферу, благоприятный исход которой сулит огромные деньги. Схема обогащения оказывается жизнеспособной и вместе с тем — смертельной.- -Качество: BDRip 1080p | BDRemux | Billionaire Boys Club 2018 REMUX BluRay 1080p AVC DTS-HD MA5 1-iFT
Продолжительность: 01:43:52-Формат: MKV
Видео кодек: MPEG-4 AVC
Аудио кодек: AC3
Видео: 1920x804 (2.40:1), 25,000 fps, x264 ~7 865 kbps avg, 0.204 bit/pixel
Аудио #1: 48 kHz, AC3 Dolby Digital, 3/2 (L,C,R,l,r) + LFE ch, ~640.00 kbps avg | RUS (Лицензия)
Аудио #2: 48 kHz, DTS Digital Theater System, 3/2 (L,C,R,l,r) + LFE ch, ~1509.00 kbps avg | ENG-Дата премьеры (мир): 17 июля 2018
Дата премьеры (РФ): 19 июля 2018, «Каскад фильм»
Цифровой релиз: 20 августа 2018, «НД Плэй»
-Релиз от: -

MediaInfo

-Общее
Уникальный идентификатор : 164359772257650046183226246771309395322 (0x7BA68A6B99F716EE909EB666BEB5BD7A)
Полное имя : F:OlLanDGroupBillionaire.Boys.2018.x264.BDRip.(1080p).OlLanDGroup.mkv
Формат : Matroska
Версия формата : Version 4 / Version 2
Размер файла : 7,26 Гбайт
Продолжительность : 1 ч. 43 м.
Общий поток : 10,0 Мбит/сек
Название фильма : Клуб миллиардеров.2018.Rip by: ollan
Дата кодирования : UTC 2019-01-06 18:38:33
Программа кодирования : mkvmerge v29.0.0 ('Like It Or Not') 64-bit
Библиотека кодирования : libebml v1.3.6 + libmatroska v1.4.9
Обложка : Yes
Attachments : Cover - Billionaire.Boys.Club.png
Видео
Идентификатор : 1
Формат : AVC
Формат/Информация : Advanced Video Codec
Профиль формата : [email protected]
Параметр CABAC формата : Да
Параметр ReFrames формата : 5 кадров
Идентификатор кодека : V_MPEG4/ISO/AVC
Продолжительность : 1 ч. 43 м.
Битрейт : 7865 Кбит/сек
Ширина : 1920 пикселей
Высота : 804 пикселя
Соотношение сторон : 2,40:1
Режим частоты кадров : Постоянный
Частота кадров : 25,000 кадров/сек
Цветовое пространство : YUV
Субдискретизация насыщенности : 4:2:0
Битовая глубина : 8 бит
Тип развёртки : Прогрессивная
Бит/(Пиксели*Кадры) : 0.204
Размер потока : 5,70 Гбайт (78%)
Библиотека кодирования : x264 core 146 r2538 121396c
Настройки программы : cabac=1 / ref=5 / deblock=1:-3:-3 / analyse=0x3:0x133 / me=umh / subme=11 / psy=1 / psy_rd=0.95:0.15 / mixed_ref=1 / me_range=64 / chroma_me=1 / trellis=2 / 8x8dct=1 / cqm=0 / deadzone=21,11 / fast_pskip=0 / chroma_qp_offset=-3 / threads=12 / lookahead_threads=3 / sliced_threads=0 / nr=0 / decimate=0 / interlaced=0 / bluray_compat=0 / constrained_intra=0 / bframes=10 / b_pyramid=2 / b_adapt=2 / b_bias=0 / direct=3 / weightb=1 / open_gop=0 / weightp=2 / keyint=250 / keyint_min=25 / scenecut=40 / intra_refresh=0 / rc_lookahead=40 / rc=2pass / mbtree=0 / bitrate=7865 / ratetol=1.0 / qcomp=0.60 / qpmin=0 / qpmax=69 / qpstep=4 / cplxblur=20.0 / qblur=0.5 / vbv_maxrate=50000 / vbv_bufsize=62500 / nal_hrd=none / filler=0 / ip_ratio=1.40 / pb_ratio=1.30 / aq=1:1.00
Язык : English
Default : Да
Forced : Нет
Аудио #1
Идентификатор : 2
Формат : AC-3
Формат/Информация : Audio Coding 3
Расширение режима : CM (complete main)
Параметр Endianness формата : Big
Идентификатор кодека : A_AC3
Продолжительность : 1 ч. 43 м.
Вид битрейта : Постоянный
Битрейт : 640 Кбит/сек
Каналы : 6 каналов
Расположение каналов : Front: L C R, Side: L R, LFE
Частота : 48,0 КГц
Частота кадров : 31,250 кадров/сек (1536 spf)
Битовая глубина : 16 бит
Метод сжатия : С потерями
Размер потока : 475 Мбайт (6%)
Заголовок : License
Язык : Russian
Default : Да
Forced : Нет
Аудио #2
Идентификатор : 3
Формат : DTS
Формат/Информация : Digital Theater Systems
Режим : 16
Параметр Endianness формата : Big
Идентификатор кодека : A_DTS
Продолжительность : 1 ч. 43 м.
Вид битрейта : Постоянный
Битрейт : 1509 Кбит/сек
Каналы : 6 каналов
Расположение каналов : Front: L C R, Side: L R, LFE
Частота : 48,0 КГц
Частота кадров : 93,750 кадра/сек (512 spf)
Битовая глубина : 24 бит
Метод сжатия : С потерями
Размер потока : 1,09 Гбайт (15%)
Заголовок : Original
Язык : English
Default : Нет
Forced : Нет
Текст #1
Идентификатор : 4
Формат : UTF-8
Идентификатор кодека : S_TEXT/UTF8
Идентификатор кодека/Информация : UTF-8 Plain Text
Продолжительность : 1 ч. 32 м.
Битрейт : 137 бит/сек
Count of elements : 1673
Размер потока : 93,2 Кбайт (0%)
Заголовок : Full
Язык : Russian
Default : Нет
Forced : Нет
Текст #2
Идентификатор : 5
Формат : UTF-8
Идентификатор кодека : S_TEXT/UTF8
Идентификатор кодека/Информация : UTF-8 Plain Text
Продолжительность : 1 ч. 31 м.
Битрейт : 84 бит/сек
Count of elements : 1732
Размер потока : 56,6 Кбайт (0%)
Заголовок : SDH
Язык : English
Default : Нет
Forced : Нет
Меню
00:00:00.000 : en:Chapter 01
00:04:51.078 : en:Chapter 02
00:13:48.759 : en:Chapter 03
00:23:02.399 : en:Chapter 04
00:28:31.797 : en:Chapter 05
00:34:13.960 : en:Chapter 06
00:42:05.760 : en:Chapter 07
00:49:09.679 : en:Chapter 08
00:55:00.000 : en:Chapter 09
01:02:40.320 : en:Chapter 10
01:10:45.559 : en:Chapter 11
01:17:18.719 : en:Chapter 12
01:23:53.760 : en:Chapter 13
01:33:08.077 : en:Chapter 14-
-

Скриншоты

--
-
[free-tor.info].t18671.torrent 
Торрент: Зарегистрирован [ 2019-01-07 00:16 ] · 95E9D2BA82A7F77F1BCAD88D02564CA0F289F93D

Скачать .torrent

Скачать .torrent

37 KB

Статус: проверено
.torrent скачан: 7 раз
Размер: 7,26 GB
Правила
Похожие темы

[Профиль] [ЛС]
Показать сообщения:    
Ответить на тему

Текущее время: 17-Июл 02:40

Часовой пояс: UTC + 4



Вы не можете начинать темы
Вы не можете отвечать на сообщения
Вы не можете редактировать свои сообщения
Вы не можете удалять свои сообщения
Вы не можете голосовать в опросах
Вы не можете прикреплять файлы к сообщениям
Вы можете скачивать файлы
Анализ веб сайтов Яндекс.Метрика