Виновный / Den skyldige / The Guilty (Густав Мёллер) [2018, триллер, драма, криминал, BDRip 1080p от селезень | iTunes]

Ответить на тему
Статистика раздачи [Обновить пиров]
Размер:  8,22 GB   |    Зарегистрирован:  6 месяцев 5 дней   |    .torrent скачан:  16 раз
Сидов:  670  [  0 KB/s  ]   Личеров:  12  [  0 KB/s  ]   Подробная статистика пиров
 
   
 
 
Автор Сообщение

Skorp10n ®

Оффлайн

 Активный раздающий 1 Активный раздающий 2
 Активный релизер 1000 Активный релизер 1500 Активный релизер 2000 Активный релизер 250 Активный релизер 3000 Активный релизер 500 Активный релизер 5000 Активный релизер Фильмов (1000) Активный релизер Фильмов (300) Активный релизер Фильмов (600) Активный Форумчанин 1 Активный Форумчанин 2 Активный Форумчанин 3 Активный Форумчанин 4 Друг трекера Карма 1000 Карма 1500 Карма 3000 Карма 500 Меценат Ни дня без новостей Орденосец 1 степени Орденосец 2 степени Орденосец 3 степени Почетный орденосец Почетный репортер С Новым 2016 Годом! С Новым 2017 Годом! С Новым 2018 Годом! С Новым 2019 Годом! Супер Мега Контер Квейк ТОП-10

Пол: Мужской

Стаж: 3 года 11 месяцев

Наличие запрета:

Сообщений: 10847

Откуда: Free-Tor.com

Отдача: не определено

Загрузка: не определено

Нажми

Создавать темы 10-Янв-2019 14:45

[Цитировать]

Информация о фильме- Название: Виновный
Оригинальное название: Den skyldige / The Guilty
Год выхода: 2018
Жанр: Триллер, драма, криминал
Режиссер: Густав Мёллер
В ролях: Якоб Седергрен, Джессика Диннаж, Омар Шаргави, Йохан Олсен, Якоб Ульрик Ломанн, Катинка Эверс-Янсен, Жанетт Линдбк, Саймон Беннебьерг, Лаура Бро, Мортен Суурбалле- -О фильме: Диспетчер службы спасения, бывший полицейский Асгер Хольм, принимает звонок от похищенной женщины. Когда связь обрывается, приходит время начать поиски жертвы и похитителя, и каждая прошедшая минута уменьшает шансы на благополучный исход. Однако, вскоре Асгер понимает, что это совсем не обычное похищение…-Страна: Дания
Студия: Det Danske Filminstitut, New Danish Screen, Nordisk Film Production
Продолжительность: 01:25:10
Перевод: Дублированный | iTunes-Качество: BDRip 1080p
Видео: MPEG-4 AVC, 1920x804, 11.9 Mbit/s, 25 fps
Звук:
Аудио #01: 48 kHz, AC3, 5.1, 384 Kbps | iTunes | RUS |
Аудио #02: 48 kHz, DTS, 5.1, 1510 Kbps | Оригинал | DAN |
Субтитры: Английские-

Скриншоты

--
-

MI

-General
Unique ID : 164516461737203276960481937483674380264 (0x7BC4B7CEE0548BCE55C82FA214DB67E8)
Complete name : D:Video111Den.skyldige.2018.BDRip.1080p.seleZen.mkv
Format : Matroska
Format version : Version 4
File size : 8.22 GiB
Duration : 1 h 25 min
Overall bit rate : 13.8 Mb/s
Movie name : Den skyldige 2018 from селезень
Encoded date : UTC 2019-01-10 06:22:30
Writing application : mkvmerge v29.0.0 ('Like It Or Not') 64-bit
Writing library : libebml v1.3.6 + libmatroska v1.4.9
Video
ID : 1
Format : AVC
Format/Info : Advanced Video Codec
Format profile : [email protected]
Format settings : CABAC / 5 Ref Frames
Format settings, CABAC : Yes
Format settings, ReFrames : 5 frames
Codec ID : V_MPEG4/ISO/AVC
Duration : 1 h 25 min
Bit rate : 11.9 Mb/s
Width : 1 920 pixels
Height : 804 pixels
Display aspect ratio : 2.40:1
Frame rate mode : Constant
Frame rate : 25.000 FPS
Color space : YUV
Chroma subsampling : 4:2:0
Bit depth : 8 bits
Scan type : Progressive
Bits/(Pixel*Frame) : 0.309
Stream size : 7.09 GiB (86%)
Title : [email protected]
Writing library : x264 core 152 r2851+45 9658d1a 7mod [[email protected] X86_64]
Encoding settings : cabac=1 / ref=5 / deblock=1:-3:-3 / analyse=0x3:0x113 / me=umh / subme=11 / psy=1 / fade_compensate=0.00 / psy_rd=1.00:0.05 / mixed_ref=1 / me_range=32 / chroma_me=1 / trellis=2 / 8x8dct=1 / cqm=0 / deadzone=21,11 / fast_pskip=0 / chroma_qp_offset=-2 / threads=64 / lookahead_threads=6 / sliced_threads=0 / nr=0 / decimate=1 / interlaced=0 / bluray_compat=0 / constrained_intra=0 / fgo=0 / bframes=8 / b_pyramid=2 / b_adapt=2 / b_bias=0 / direct=3 / weightb=1 / open_gop=0 / weightp=2 / keyint=250 / keyint_min=25 / scenecut=40 / intra_refresh=0 / rc_lookahead=40 / rc=crf / mbtree=0 / crf=16.6000 / qcomp=0.60 / qpmin=0:0:0 / qpmax=69:69:69 / qpstep=4 / vbv_maxrate=50000 / vbv_bufsize=40000 / crf_max=0.0 / nal_hrd=none / filler=0 / ip_ratio=1.40 / pb_ratio=1.30 / aq=4:0.90 / aq-sensitivity=10.00 / aq-factor=1.00:1.00:1.00 / aq2=0 / aq3=0
Language : Dutch
Default : Yes
Forced : No
Audio #1
ID : 2
Format : AC-3
Format/Info : Audio Coding 3
Commercial name : Dolby Digital
Codec ID : A_AC3
Duration : 1 h 24 min
Bit rate mode : Constant
Bit rate : 384 kb/s
Channel(s) : 6 channels
Channel layout : L R C LFE Ls Rs
Sampling rate : 48.0 kHz
Frame rate : 31.250 FPS (1536 SPF)
Bit depth : 16 bits
Compression mode : Lossy
Stream size : 233 MiB (3%)
Title : iTunes
Language : Russian
Service kind : Complete Main
Default : Yes
Forced : Yes
Audio #2
ID : 3
Format : DTS
Format/Info : Digital Theater Systems
Codec ID : A_DTS
Duration : 1 h 25 min
Bit rate mode : Constant
Bit rate : 1 509 kb/s
Channel(s) : 6 channels
Channel layout : C L R Ls Rs LFE
Sampling rate : 48.0 kHz
Frame rate : 93.750 FPS (512 SPF)
Bit depth : 24 bits
Compression mode : Lossy
Stream size : 919 MiB (11%)
Title : Original
Language : Danish
Default : No
Forced : No
Text
ID : 4
Format : UTF-8
Codec ID : S_TEXT/UTF8
Codec ID/Info : UTF-8 Plain Text
Duration : 1 h 20 min
Bit rate : 51 b/s
Count of elements : 1039
Stream size : 30.8 KiB (0%)
Title : Full
Language : English
Default : No
Forced : No
Menu
00:00:00.000 : en:00:00:00.000
00:08:45.680 : en:00:08:45.680
00:15:07.480 : en:00:15:07.480
00:25:05.240 : en:00:25:05.240
00:32:11.520 : en:00:32:11.520
00:40:12.080 : en:00:40:12.080
00:45:19.160 : en:00:45:19.160
00:52:43.200 : en:00:52:43.200
01:01:19.720 : en:01:01:19.720
01:07:38.080 : en:01:07:38.080
01:12:36.320 : en:01:12:36.320
01:22:06.240 : en:01:22:06.240-
-Релиз от: -
[free-tor.info].t18731.torrent 
Торрент: Зарегистрирован [ 2019-01-10 14:45 ] · 100ACB43F8F4E717B35DEF4ADEDE4DBE50C7284F

Скачать .torrent

Скачать .torrent

12 KB

Статус: проверено
.torrent скачан: 16 раз
Размер: 8,22 GB
Правила
Похожие темы

[Профиль] [ЛС]
Показать сообщения:    
Ответить на тему

Текущее время: 16-Июл 04:56

Часовой пояс: UTC + 4



Вы не можете начинать темы
Вы не можете отвечать на сообщения
Вы не можете редактировать свои сообщения
Вы не можете удалять свои сообщения
Вы не можете голосовать в опросах
Вы не можете прикреплять файлы к сообщениям
Вы можете скачивать файлы
Анализ веб сайтов Яндекс.Метрика