Звезда родилась / A Star Is Born (Брэдли Купер) [2018, мелодрама, музыка, WEB-DL 1080p от селезень | iTunes]

Ответить на тему
Статистика раздачи [Обновить пиров]
Размер:  5,17 GB   |    Зарегистрирован:  5 месяцев 28 дней   |    .torrent скачан:  6 раз
Сидов:  4454  [  0 KB/s  ]   Личеров:  95  [  0 KB/s  ]   Подробная статистика пиров
 
   
 
 
Автор Сообщение

Skorp10n ®

Оффлайн

 Активный раздающий 1 Активный раздающий 2
 Активный релизер 1000 Активный релизер 1500 Активный релизер 2000 Активный релизер 250 Активный релизер 3000 Активный релизер 500 Активный релизер 5000 Активный релизер Фильмов (1000) Активный релизер Фильмов (300) Активный релизер Фильмов (600) Активный Форумчанин 1 Активный Форумчанин 2 Активный Форумчанин 3 Активный Форумчанин 4 Друг трекера Карма 1000 Карма 1500 Карма 3000 Карма 500 Меценат Ни дня без новостей Орденосец 1 степени Орденосец 2 степени Орденосец 3 степени Почетный орденосец Почетный репортер С Новым 2016 Годом! С Новым 2017 Годом! С Новым 2018 Годом! С Новым 2019 Годом! Супер Мега Контер Квейк ТОП-10

Пол: Мужской

Стаж: 3 года 11 месяцев

Наличие запрета:

Сообщений: 10847

Откуда: Free-Tor.com

Отдача: не определено

Загрузка: не определено

Нажми

Создавать темы 18-Янв-2019 13:43

[Цитировать]

Информация о фильме- Название: Звезда родилась
Оригинальное название: A Star Is Born
Год выхода: 2018
Жанр: Мелодрама, музыка
Режиссер: Брэдли Купер
В ролях: Леди Гага, Брэдли Купер, Сэм Эллиотт, Дэйв Шаппелл, Алек Болдуин, Рафи Гаврон, Энтони Рамос, Эндрю Дайс Клэй, Майкл Харни, Д.Дж. Пирс, Уиллам Беллай- -О фильме: Кантри-музыкант Джексон Мейн, чья карьера быстро катится под откос, однажды знакомится с никому не известной талантливой певицей Элли. Между героями вспыхивает страстный роман. Джек помогает Элли добиться успеха. Но чем стремительнее набирает обороты музыкальная карьера Элли, тем сложнее ему мириться со своей увядающей славой.-Страна: США
Студия: 22 & Indiana Pictures, Gerber Pictures
Продолжительность: 02:15:43
Перевод: Дублированный | iTunes-Качество: WEB-DL 1080p
Видео: MPEG-4 AVC, 1920x800, 4556 Kbit/s, 23.976 fps
Звук:
Аудио #01: 48 kHz, AC3, 5.1, 384 Kbps | iTunes | RUS |
Аудио #02: 48 kHz, AAC, 2.0, 125 Kbps | iTunes | UKR |
Аудио #03: 48 kHz, AC3, 5.1, 384 Kbps | Оригинал | ENG |
Субтитры: Русские (Forced, full), украинские (Forced), английские-

Скриншоты

--
-

MI

-General
Unique ID : 257950352926151924876759404168414783224 (0xC20F6E4E951C0620A3CEBBBECE0066F8)
Complete name : D:Video111A.Star.is.Born.2018.WEB-DL.1080p.seleZen.mkv
Format : Matroska
Format version : Version 4
File size : 5.17 GiB
Duration : 2 h 15 min
Overall bit rate : 5 452 kb/s
Movie name : A Star is Born 2018 from селезень
Encoded date : UTC 2019-01-15 21:29:52
Writing application : mkvmerge v29.0.0 ('Like It Or Not') 64-bit
Writing library : libebml v1.3.6 + libmatroska v1.4.9
Video
ID : 1
Format : AVC
Format/Info : Advanced Video Codec
Format profile : [email protected]
Format settings : CABAC / 5 Ref Frames
Format settings, CABAC : Yes
Format settings, ReFrames : 5 frames
Codec ID : V_MPEG4/ISO/AVC
Duration : 2 h 15 min
Bit rate : 4 556 kb/s
Width : 1 920 pixels
Height : 800 pixels
Display aspect ratio : 2.40:1
Frame rate mode : Constant
Frame rate : 23.976 (24000/1001) FPS
Color space : YUV
Chroma subsampling : 4:2:0
Bit depth : 8 bits
Scan type : Progressive
Bits/(Pixel*Frame) : 0.124
Stream size : 4.32 GiB (84%)
Language : English
Default : Yes
Forced : No
Color range : Limited
Color primaries : BT.709
Transfer characteristics : BT.709
Matrix coefficients : BT.709
Audio #1
ID : 2
Format : AC-3
Format/Info : Audio Coding 3
Commercial name : Dolby Digital
Codec ID : A_AC3
Duration : 2 h 15 min
Bit rate mode : Constant
Bit rate : 384 kb/s
Channel(s) : 6 channels
Channel layout : L R C LFE Ls Rs
Sampling rate : 48.0 kHz
Frame rate : 31.250 FPS (1536 SPF)
Bit depth : 16 bits
Compression mode : Lossy
Stream size : 373 MiB (7%)
Title : iTunes
Language : Russian
Service kind : Complete Main
Default : Yes
Forced : Yes
Audio #2
ID : 3
Format : AAC LC
Format/Info : Advanced Audio Codec Low Complexity
Codec ID : A_AAC-2
Duration : 2 h 15 min
Bit rate : 125 kb/s
Channel(s) : 2 channels
Channel layout : L R
Sampling rate : 48.0 kHz
Frame rate : 46.875 FPS (1024 SPF)
Compression mode : Lossy
Stream size : 122 MiB (2%)
Title : iTunes
Language : Ukrainian
Default : No
Forced : No
Audio #3
ID : 4
Format : AC-3
Format/Info : Audio Coding 3
Commercial name : Dolby Digital
Codec ID : A_AC3
Duration : 2 h 15 min
Bit rate mode : Constant
Bit rate : 384 kb/s
Channel(s) : 6 channels
Channel layout : L R C LFE Ls Rs
Sampling rate : 48.0 kHz
Frame rate : 31.250 FPS (1536 SPF)
Bit depth : 16 bits
Compression mode : Lossy
Stream size : 373 MiB (7%)
Title : Original
Language : English
Service kind : Complete Main
Default : No
Forced : No
Text #1
ID : 5
Format : UTF-8
Codec ID : S_TEXT/UTF8
Codec ID/Info : UTF-8 Plain Text
Duration : 1 h 25 min
Bit rate : 0 b/s
Count of elements : 6
Stream size : 232 Bytes (0%)
Title : Forced
Language : Russian
Default : Yes
Forced : Yes
Text #2
ID : 6
Format : UTF-8
Codec ID : S_TEXT/UTF8
Codec ID/Info : UTF-8 Plain Text
Duration : 2 h 14 min
Bit rate : 95 b/s
Count of elements : 1563
Stream size : 94.6 KiB (0%)
Title : Full
Language : Russian
Default : No
Forced : No
Text #3
ID : 7
Format : UTF-8
Codec ID : S_TEXT/UTF8
Codec ID/Info : UTF-8 Plain Text
Duration : 1 h 26 min
Bit rate : 0 b/s
Count of elements : 8
Stream size : 406 Bytes (0%)
Language : Ukrainian
Default : No
Forced : No
Text #4
ID : 8
Format : UTF-8
Codec ID : S_TEXT/UTF8
Codec ID/Info : UTF-8 Plain Text
Duration : 2 h 14 min
Bit rate : 70 b/s
Count of elements : 2151
Stream size : 69.3 KiB (0%)
Title : SDH
Language : English
Default : No
Forced : No
Menu
00:00:00.000 : en:1
00:11:08.000 : en:2
00:20:26.000 : en:3
00:31:43.000 : en:4
00:42:46.000 : en:5
00:53:11.000 : en:6
01:04:31.000 : en:7
01:16:51.000 : en:8
01:29:29.000 : en:9
01:43:45.000 : en:10
01:56:41.000 : en:11
02:10:05.000 : en:12-
-Релиз от: -
[free-tor.info].t18874.torrent 
Торрент: Зарегистрирован [ 2019-01-18 13:43 ] · C6E7CBF093A51EDE2850A012A58C23C7AD0E67EC

Скачать .torrent

Скачать .torrent

8 KB

Статус: проверено
.torrent скачан: 6 раз
Размер: 5,17 GB
Правила
Похожие темы

[Профиль] [ЛС]
Показать сообщения:    
Ответить на тему

Текущее время: 16-Июл 04:36

Часовой пояс: UTC + 4



Вы не можете начинать темы
Вы не можете отвечать на сообщения
Вы не можете редактировать свои сообщения
Вы не можете удалять свои сообщения
Вы не можете голосовать в опросах
Вы не можете прикреплять файлы к сообщениям
Вы можете скачивать файлы
Анализ веб сайтов Яндекс.Метрика