Этим летом / Summer '03 (Бекка Глисон) [2018, комедия, WEB-DL 1080p от селезень | iTunes]

Ответить на тему
Статистика раздачи [Обновить пиров]
Размер:  3,58 GB   |    Зарегистрирован:  5 месяцев 28 дней   |    .torrent скачан:  10 раз
Сидов:  302  [  0 KB/s  ]   Личеров:  35  [  0 KB/s  ]   Подробная статистика пиров
 
   
 
 
Автор Сообщение

Skorp10n ®

Оффлайн

 Активный раздающий 1 Активный раздающий 2
 Активный релизер 1000 Активный релизер 1500 Активный релизер 2000 Активный релизер 250 Активный релизер 3000 Активный релизер 500 Активный релизер 5000 Активный релизер Фильмов (1000) Активный релизер Фильмов (300) Активный релизер Фильмов (600) Активный Форумчанин 1 Активный Форумчанин 2 Активный Форумчанин 3 Активный Форумчанин 4 Друг трекера Карма 1000 Карма 1500 Карма 3000 Карма 500 Меценат Ни дня без новостей Орденосец 1 степени Орденосец 2 степени Орденосец 3 степени Почетный орденосец Почетный репортер С Новым 2016 Годом! С Новым 2017 Годом! С Новым 2018 Годом! С Новым 2019 Годом! Супер Мега Контер Квейк ТОП-10

Пол: Мужской

Стаж: 3 года 11 месяцев

Наличие запрета:

Сообщений: 10847

Откуда: Free-Tor.com

Отдача: не определено

Загрузка: не определено

Нажми

Создавать темы 18-Янв-2019 16:48

[Цитировать]

Информация о фильме- Название: Этим летом
Оригинальное название: Summer '03
Год выхода: 2018
Жанр: Комедия
Режиссер: Бекка Глисон
В ролях: Андреа Сэвадж, Джои Кинг, Эрин Майя Дарк, Джун Скуиб, Пол Шир, Джек Килмер, Моника Матис, Логан Медина, Келли Ламор Уилсон, Стеффан Аргус- -О фильме: Жизнь 16-летней Джейми идёт своим чередом: она гуляет, любит и дружит. Всё резко переворачивается с ног на голову, когда на поверхность выходит ворох семейных секретов.-Страна: США
Студия: Big Cat Productions, Summer 03 Film
Продолжительность: 01:35:39
Перевод: Дублированный | iTunes-Качество: WEB-DL 1080p
Видео: MPEG-4 AVC, 1920x918, 4581 Kbit/s, 24 fps
Звук:
Аудио #01: 48 kHz, AC3, 5.1, 384 Kbps | iTunes | RUS |
Аудио #02: 48 kHz, AC3, 5.1, 384 Kbps | Оригинал | ENG |
Субтитры: Английские-

Скриншоты

--
-

MI

-General
Unique ID : 280105119368191625847412837587336736206 (0xD2BA48A0596BAF6EDEFA936AE69EADCE)
Complete name : D:Video111Summer.03.2018.WEB-DL.1080p.seleZen.mkv
Format : Matroska
Format version : Version 4
File size : 3.58 GiB
Duration : 1 h 35 min
Overall bit rate : 5 351 kb/s
Movie name : Summer 03 2018 from селезень
Encoded date : UTC 2019-01-17 00:07:59
Writing application : mkvmerge v29.0.0 ('Like It Or Not') 64-bit
Writing library : libebml v1.3.6 + libmatroska v1.4.9
Video
ID : 1
Format : AVC
Format/Info : Advanced Video Codec
Format profile : [email protected]
Format settings : CABAC / 4 Ref Frames
Format settings, CABAC : Yes
Format settings, ReFrames : 4 frames
Codec ID : V_MPEG4/ISO/AVC
Duration : 1 h 35 min
Bit rate : 4 581 kb/s
Width : 1 920 pixels
Height : 918 pixels
Display aspect ratio : 2.092
Frame rate mode : Constant
Frame rate : 24.000 FPS
Color space : YUV
Chroma subsampling : 4:2:0
Bit depth : 8 bits
Scan type : Progressive
Bits/(Pixel*Frame) : 0.108
Stream size : 3.06 GiB (86%)
Language : English
Default : Yes
Forced : No
Color range : Limited
Color primaries : BT.709
Transfer characteristics : BT.709
Matrix coefficients : BT.709
Audio #1
ID : 2
Format : AC-3
Format/Info : Audio Coding 3
Commercial name : Dolby Digital
Codec ID : A_AC3
Duration : 1 h 35 min
Bit rate mode : Constant
Bit rate : 384 kb/s
Channel(s) : 6 channels
Channel layout : L R C LFE Ls Rs
Sampling rate : 48.0 kHz
Frame rate : 31.250 FPS (1536 SPF)
Bit depth : 16 bits
Compression mode : Lossy
Stream size : 263 MiB (7%)
Title : iTunes
Language : Russian
Service kind : Complete Main
Default : Yes
Forced : Yes
Audio #2
ID : 3
Format : AC-3
Format/Info : Audio Coding 3
Commercial name : Dolby Digital
Codec ID : A_AC3
Duration : 1 h 35 min
Bit rate mode : Constant
Bit rate : 384 kb/s
Channel(s) : 6 channels
Channel layout : L R C LFE Ls Rs
Sampling rate : 48.0 kHz
Frame rate : 31.250 FPS (1536 SPF)
Bit depth : 16 bits
Compression mode : Lossy
Stream size : 263 MiB (7%)
Title : Original
Language : English
Service kind : Complete Main
Default : No
Forced : No
Text
ID : 4
Format : UTF-8
Codec ID : S_TEXT/UTF8
Codec ID/Info : UTF-8 Plain Text
Duration : 1 h 33 min
Bit rate : 67 b/s
Count of elements : 1497
Stream size : 46.1 KiB (0%)
Language : English
Default : No
Forced : No
Menu
00:00:00.000 : en:Глава 1
00:03:13.291 : en:Глава 2
00:11:55.457 : en:Глава 3
00:18:02.498 : en:Глава 4
00:22:45.164 : en:Глава 5
00:28:18.122 : en:Глава 6
00:35:34.330 : en:Глава 7
00:43:51.080 : en:Глава 8
00:49:38.038 : en:Глава 9
00:55:52.871 : en:Глава 10
01:04:41.579 : en:Глава 11
01:12:54.329 : en:Глава 12
01:22:00.620 : en:Глава 13
01:27:32.370 : en:Глава 14-
-Релиз от: -
[free-tor.info].t18903.torrent 
Торрент: Зарегистрирован [ 2019-01-18 16:48 ] · 443B9684C7598A9BD44699EADA801584C5EE9303

Скачать .torrent

Скачать .torrent

6 KB

Статус: проверено
.torrent скачан: 10 раз
Размер: 3,58 GB
Правила
Похожие темы

[Профиль] [ЛС]
Показать сообщения:    
Ответить на тему

Текущее время: 16-Июл 04:23

Часовой пояс: UTC + 4



Вы не можете начинать темы
Вы не можете отвечать на сообщения
Вы не можете редактировать свои сообщения
Вы не можете удалять свои сообщения
Вы не можете голосовать в опросах
Вы не можете прикреплять файлы к сообщениям
Вы можете скачивать файлы
Анализ веб сайтов Яндекс.Метрика