Вечерняя школа / Night School (Малкольм Д. Ли) [2018, комедия, BDRip 1080p от селезень | iTunes]

Ответить на тему
Статистика раздачи [Обновить пиров]
Размер:  9,24 GB   |    Зарегистрирован:  5 месяцев 29 дней   |    .torrent скачан:  11 раз
Сидов:  1437  [  0 KB/s  ]   Личеров:  121  [  0 KB/s  ]   Подробная статистика пиров
 
   
 
 
Автор Сообщение

Skorp10n ®

Оффлайн

 Активный раздающий 1 Активный раздающий 2
 Активный релизер 1000 Активный релизер 1500 Активный релизер 2000 Активный релизер 250 Активный релизер 3000 Активный релизер 500 Активный релизер 5000 Активный релизер Фильмов (1000) Активный релизер Фильмов (300) Активный релизер Фильмов (600) Активный Форумчанин 1 Активный Форумчанин 2 Активный Форумчанин 3 Активный Форумчанин 4 Друг трекера Карма 1000 Карма 1500 Карма 3000 Карма 500 Меценат Ни дня без новостей Орденосец 1 степени Орденосец 2 степени Орденосец 3 степени Почетный орденосец Почетный репортер С Новым 2016 Годом! С Новым 2017 Годом! С Новым 2018 Годом! С Новым 2019 Годом! Супер Мега Контер Квейк ТОП-10

Пол: Мужской

Стаж: 3 года 11 месяцев

Наличие запрета:

Сообщений: 10847

Откуда: Free-Tor.com

Отдача: не определено

Загрузка: не определено

Нажми

Создавать темы 18-Янв-2019 17:49

[Цитировать]

Информация о фильме- Название: Вечерняя школа
Оригинальное название: Night School
Год выхода: 2018
Жанр: Комедия
Режиссер: Малкольм Д. Ли
В ролях: Тиффани Хэддиш, Кевин Харт, Таран Киллэм, Романи Малко, Мэгалин Эчиканвоке, Энн Уинтерс, Кит Дэвид, Мэри Линн Райскаб, Бен Шварц, Брук Батлер- -О фильме: Тедди Уокер - продавец грилей, который в 2001 году вылетел из школы, не сумев сосредоточиться на важном экзамене. Спустя годы он встречается с богатой Лизой и, благодаря некоторым уловкам, выдаёт себя за гораздо более богатого человека. Однако тщательно продуманный фасад рушится, когда Тедди случайно взрывает магазин во время попытки сделать Лизе предложение. Теперь ему нужно найти новую работу, но для этого не мешало бы сдать тот самый школьный экзамен. Уокер отправляется в вечернюю школу, где его учительницей становится Кэрри, и, кажется, она сумеет пробудить в герое жажду к знаниям.-Страна: США
Студия: Hartbeat Productions, Perfect World Pictures, Universal Pictures
Продолжительность: 01:51:16
Перевод: Дублированный | iTunes-Качество: BDRip 1080p
Видео: MPEG-4 AVC, 1920x804, 10 Mbit/s, 23.976 fps
Звук:
Аудио #01: 48 kHz, AC3, 5.1, 384 Kbps | iTunes | RUS |
Аудио #02: 48 kHz, DTS, 5.1, 1510 Kbps | Оригинал | ENG |
Субтитры: Английские-

Скриншоты

--
-

MI

-General
Unique ID : 177892046054834403359550373252182080572 (0x85D4C307B80D54F9D9F7B1FAB34C7C3C)
Complete name : D:Video111Night.School.2018.BDRip.1080p.seleZen.mkv
Format : Matroska
Format version : Version 4
File size : 9.24 GiB
Duration : 1 h 51 min
Overall bit rate : 11.9 Mb/s
Movie name : Night School 2018 from селезень
Encoded date : UTC 2019-01-18 02:21:24
Writing application : mkvmerge v29.0.0 ('Like It Or Not') 64-bit
Writing library : libebml v1.3.6 + libmatroska v1.4.9
Video
ID : 1
Format : AVC
Format/Info : Advanced Video Codec
Format profile : [email protected]
Format settings : CABAC / 5 Ref Frames
Format settings, CABAC : Yes
Format settings, ReFrames : 5 frames
Codec ID : V_MPEG4/ISO/AVC
Duration : 1 h 51 min
Bit rate : 10 000 kb/s
Width : 1 920 pixels
Height : 804 pixels
Display aspect ratio : 2.40:1
Frame rate mode : Constant
Frame rate : 23.976 (24000/1001) FPS
Color space : YUV
Chroma subsampling : 4:2:0
Bit depth : 8 bits
Scan type : Progressive
Bits/(Pixel*Frame) : 0.270
Stream size : 7.77 GiB (84%)
Title : seleZen
Writing library : x264 core 148 r2705kMod 3f5ed56
Encoding settings : cabac=1 / ref=5 / deblock=1:-2:-2 / analyse=0x3:0x133 / me=umh / subme=10 / psy=1 / fade_compensate=0.00 / psy_rd=1.20:0.05 / mixed_ref=1 / me_range=24 / chroma_me=1 / trellis=2 / 8x8dct=1 / cqm=0 / deadzone=21,11 / fast_pskip=0 / chroma_qp_offset=-3 / threads=12 / lookahead_threads=2 / sliced_threads=0 / nr=0 / decimate=0 / interlaced=0 / bluray_compat=0 / constrained_intra=0 / fgo=0 / bframes=8 / b_pyramid=2 / b_adapt=2 / b_bias=0 / direct=3 / weightb=1 / open_gop=0 / weightp=2 / keyint=240 / keyint_min=23 / scenecut=40 / intra_refresh=0 / rc_lookahead=50 / rc=2pass / mbtree=0 / bitrate=10000 / ratetol=1.0 / qcomp=0.60 / qpmin=0 / qpmax=51 / qpstep=4 / cplxblur=20.0 / qblur=0.5 / vbv_maxrate=50000 / vbv_bufsize=62500 / nal_hrd=none / filler=0 / ip_ratio=1.40 / pb_ratio=1.30 / aq=3:0.80
Language : English
Default : Yes
Forced : No
Audio #1
ID : 2
Format : AC-3
Format/Info : Audio Coding 3
Commercial name : Dolby Digital
Codec ID : A_AC3
Duration : 1 h 51 min
Bit rate mode : Constant
Bit rate : 384 kb/s
Channel(s) : 6 channels
Channel layout : L R C LFE Ls Rs
Sampling rate : 48.0 kHz
Frame rate : 31.250 FPS (1536 SPF)
Bit depth : 16 bits
Compression mode : Lossy
Stream size : 306 MiB (3%)
Title : iTunes
Language : Russian
Service kind : Complete Main
Default : Yes
Forced : Yes
Audio #2
ID : 3
Format : DTS
Format/Info : Digital Theater Systems
Codec ID : A_DTS
Duration : 1 h 51 min
Bit rate mode : Constant
Bit rate : 1 509 kb/s
Channel(s) : 6 channels
Channel layout : C L R Ls Rs LFE
Sampling rate : 48.0 kHz
Frame rate : 93.750 FPS (512 SPF)
Bit depth : 24 bits
Compression mode : Lossy
Stream size : 1.17 GiB (13%)
Title : Original
Language : English
Default : No
Forced : No
Text
ID : 4
Format : UTF-8
Codec ID : S_TEXT/UTF8
Codec ID/Info : UTF-8 Plain Text
Duration : 1 h 46 min
Bit rate : 110 b/s
Count of elements : 2525
Stream size : 85.6 KiB (0%)
Title : SDH
Language : English
Default : No
Forced : No
Menu
00:00:00.000 : ru:Глава 01
00:04:38.278 : ru:Глава 02
00:08:25.922 : ru:Глава 03
00:13:20.008 : ru:Глава 04
00:19:08.856 : ru:Глава 05
00:26:36.178 : ru:Глава 06
00:29:53.625 : ru:Глава 07
00:37:48.516 : ru:Глава 08
00:41:07.173 : ru:Глава 09
00:46:41.298 : ru:Глава 10
00:49:57.828 : ru:Глава 11
00:58:33.468 : ru:Глава 12
01:04:17.562 : ru:Глава 13
01:11:00.089 : ru:Глава 14
01:15:00.704 : ru:Глава 15
01:21:13.076 : ru:Глава 16
01:29:01.086 : ru:Глава 17
01:33:56.297 : ru:Глава 18
01:39:33.759 : ru:Глава 19
01:46:36.056 : ru:Глава 20-
-Релиз от: -
[free-tor.info].t18911.torrent 
Торрент: Зарегистрирован [ 2019-01-18 17:49 ] · 4C9D36851548F916A650F5B3B51CE50868FAA892

Скачать .torrent

Скачать .torrent

13 KB

Статус: проверено
.torrent скачан: 11 раз
Размер: 9,24 GB
Правила
Похожие темы

[Профиль] [ЛС]
Показать сообщения:    
Ответить на тему

Текущее время: 17-Июл 03:06

Часовой пояс: UTC + 4



Вы не можете начинать темы
Вы не можете отвечать на сообщения
Вы не можете редактировать свои сообщения
Вы не можете удалять свои сообщения
Вы не можете голосовать в опросах
Вы не можете прикреплять файлы к сообщениям
Вы можете скачивать файлы
Анализ веб сайтов Яндекс.Метрика