Пристанище страха / Realms (Дэрик Гейтс) [2018, ужасы, детектив, WEB-DL 1080p | iTunes]

Ответить на тему
Статистика раздачи [Обновить пиров]
Размер:  3,38 GB   |    Зарегистрирован:  5 месяцев 28 дней   |    .torrent скачан:  17 раз
Сидов:  216  [  0 KB/s  ]   Личеров:  6  [  0 KB/s  ]   Подробная статистика пиров
 
   
 
 
Автор Сообщение

Skorp10n ®

Оффлайн

 Активный раздающий 1 Активный раздающий 2
 Активный релизер 1000 Активный релизер 1500 Активный релизер 2000 Активный релизер 250 Активный релизер 3000 Активный релизер 500 Активный релизер 5000 Активный релизер Фильмов (1000) Активный релизер Фильмов (300) Активный релизер Фильмов (600) Активный Форумчанин 1 Активный Форумчанин 2 Активный Форумчанин 3 Активный Форумчанин 4 Друг трекера Карма 1000 Карма 1500 Карма 3000 Карма 500 Меценат Ни дня без новостей Орденосец 1 степени Орденосец 2 степени Орденосец 3 степени Почетный орденосец Почетный репортер С Новым 2016 Годом! С Новым 2017 Годом! С Новым 2018 Годом! С Новым 2019 Годом! Супер Мега Контер Квейк ТОП-10

Пол: Мужской

Стаж: 3 года 11 месяцев

Наличие запрета:

Сообщений: 10847

Откуда: Free-Tor.com

Отдача: не определено

Загрузка: не определено

Нажми

Создавать темы 18-Янв-2019 18:30

[Цитировать]

Информация о фильме- Название: Пристанище страха
Оригинальное название: Realms
Год выхода: 2018
Жанр: Ужасы, детектив
Страна: США
Перевод: Дублированный | iTunes
Продолжительность: 01:30:44
Режиссер: Дэрик Гейтс
В ролях: Райан Келли, Мэдисон Маккинли, Прия Суандокемай, Гольф, Эйр Пхантила и др.-О фильме: Спасаясь от погони после неудавшегося ограбления банка, два вора оказываются в уединенном особняке посреди леса. С наступлением ночи в доме становится неуютно, и герои начинают понимать, что этот особняк скрывает в своих таинственных чертогах множество зловещих секретов.- -Файл-Качество: WEB-DL 1080p
Видео: MPEG-4 AVC, 1920x818, 4571 kbps, 23,976 fps
Звук#1: русский, AC3, 5.1 ch, 48 kHz, 384 kbps | iTunes
Звук#2: английский, AC3, 5.1 ch, 48 kHz, 384 kbps | оригинал
Субтитры: русские (форс., полные), английские (форс.)-

MI

-General
Уникальный идентификатор : 236570847580733206015956330960626588926 (0xB1F9E34F8B03D6AA9E57EB226C771CFE)
Полное имя : F:TorrentRealmsWEBDL1080p.mkv
Формат : Matroska
Версия формата : Version 4 / Version 2
Размер файла : 3.38 GiB
Продолжительность : 1 h 30 min
Общий поток : 5 340 kb/s
Дата кодирования : UTC 2019-01-16 21:06:07
Программа кодирования : mkvmerge v9.5.0 ('Quiet Fire') 64bit
Библиотека кодирования : libebml v1.3.4 + libmatroska v1.4.5
Video
Идентификатор : 1
Формат : AVC
Формат/Информация : Advanced Video Codec
Профиль формата : [email protected]
Настройки формата : CABAC / 5 Ref Frames
Параметр CABAC формата : Yes
Параметр RefFrames формата : 5 frames
Идентификатор кодека : V_MPEG4/ISO/AVC
Продолжительность : 1 h 30 min
Битрейт : 4 571 kb/s
Ширина : 1 920 pixels
Высота : 818 pixels
Соотношение сторон : 2.35:1
Режим частоты кадров : Constant
Частота кадров : 23.976 FPS
Цветовое пространство : YUV
Субдискретизация насыщенности : 4:2:0
Битовая глубина : 8 bits
Тип развёртки : Progressive
Бит/(Пиксели*Кадры) : 0.121
Размер потока : 2.90 GiB (86%)
Язык : English
Default : Yes
Forced : No
Цветовой диапазон : Limited
Основные цвета : BT.709
Характеристики трансфера : BT.709
Коэффициенты матрицы : BT.709
Audio #1
Идентификатор : 2
Формат : AC-3
Формат/Информация : Audio Coding 3
Идентификатор кодека : A_AC3
Продолжительность : 1 h 30 min
Вид битрейта : Constant
Битрейт : 384 kb/s
Каналы : 6 channels
Расположение каналов : Front: L C R, Side: L R, LFE
Частота : 48.0 kHz
Частота кадров : 31.250 FPS (1536 SPF)
Битовая глубина : 16 bits
Метод сжатия : Lossy
Размер потока : 249 MiB (7%)
Язык : Russian
Default : Yes
Forced : No
Audio #2
Идентификатор : 3
Формат : AC-3
Формат/Информация : Audio Coding 3
Идентификатор кодека : A_AC3
Продолжительность : 1 h 30 min
Вид битрейта : Constant
Битрейт : 384 kb/s
Каналы : 6 channels
Расположение каналов : Front: L C R, Side: L R, LFE
Частота : 48.0 kHz
Частота кадров : 31.250 FPS (1536 SPF)
Битовая глубина : 16 bits
Метод сжатия : Lossy
Размер потока : 249 MiB (7%)
Язык : English
Default : No
Forced : No
Text #1
Идентификатор : 4
Формат : UTF-8
Идентификатор кодека : S_TEXT/UTF8
Идентификатор кодека/Информация : UTF-8 Plain Text
Продолжительность : 1 h 28 min
Битрейт : 4 b/s
ElementCount : 72
Размер потока : 2.88 KiB (0%)
Заголовок : rusForced
Язык : Russian
Default : Yes
Forced : Yes
Text #2
Идентификатор : 5
Формат : UTF-8
Идентификатор кодека : S_TEXT/UTF8
Идентификатор кодека/Информация : UTF-8 Plain Text
Продолжительность : 1 h 29 min
Битрейт : 39 b/s
ElementCount : 654
Размер потока : 25.7 KiB (0%)
Заголовок : rusFull
Язык : Russian
Default : No
Forced : No
Text #3
Идентификатор : 6
Формат : UTF-8
Идентификатор кодека : S_TEXT/UTF8
Идентификатор кодека/Информация : UTF-8 Plain Text
Продолжительность : 1 h 22 min
Битрейт : 2 b/s
ElementCount : 67
Размер потока : 1.62 KiB (0%)
Заголовок : engForced
Язык : English
Default : No
Forced : No
Menu
00:00:00.000 : en:1
00:07:49.000 : en:2
00:14:51.000 : en:3
00:22:58.000 : en:4
00:31:40.000 : en:5
00:46:20.000 : en:6
00:57:43.000 : en:7
01:04:50.000 : en:8
01:13:47.000 : en:9
01:24:35.000 : en:10
01:26:21.000 : en:11-
-

Скриншоты

--
-Релиз от: -
[free-tor.info].t18922.torrent 
Торрент: Зарегистрирован [ 2019-01-18 18:30 ] · 8C051C2E28C9FFA88FAD4EAC12EFE5101947A2B0

Скачать .torrent

Скачать .torrent

18 KB

Статус: проверено
.torrent скачан: 17 раз
Размер: 3,38 GB
Правила
Похожие темы

[Профиль] [ЛС]
Показать сообщения:    
Ответить на тему

Текущее время: 16-Июл 04:34

Часовой пояс: UTC + 4



Вы не можете начинать темы
Вы не можете отвечать на сообщения
Вы не можете редактировать свои сообщения
Вы не можете удалять свои сообщения
Вы не можете голосовать в опросах
Вы не можете прикреплять файлы к сообщениям
Вы можете скачивать файлы
Анализ веб сайтов Яндекс.Метрика