Улётные девочки / Girls Trip (Малкольм Д. Ли / Malcolm D. Lee) [2017, комедия, BDRip 1080p | P]

Ответить на тему
Статистика раздачи [Обновить пиров]
Размер:  12,78 GB   |    Зарегистрирован:  5 месяцев 28 дней   |    .torrent скачан:  6 раз
Сидов:  33  [  0 KB/s  ]   Личеров:  5  [  0 KB/s  ]   Подробная статистика пиров
 
   
 
 
Автор Сообщение

Skorp10n ®

Оффлайн

 Активный раздающий 1 Активный раздающий 2
 Активный релизер 1000 Активный релизер 1500 Активный релизер 2000 Активный релизер 250 Активный релизер 3000 Активный релизер 500 Активный релизер 5000 Активный релизер Фильмов (1000) Активный релизер Фильмов (300) Активный релизер Фильмов (600) Активный Форумчанин 1 Активный Форумчанин 2 Активный Форумчанин 3 Активный Форумчанин 4 Друг трекера Карма 1000 Карма 1500 Карма 3000 Карма 500 Меценат Ни дня без новостей Орденосец 1 степени Орденосец 2 степени Орденосец 3 степени Почетный орденосец Почетный репортер С Новым 2016 Годом! С Новым 2017 Годом! С Новым 2018 Годом! С Новым 2019 Годом! Супер Мега Контер Квейк ТОП-10

Пол: Мужской

Стаж: 3 года 11 месяцев

Наличие запрета:

Сообщений: 10847

Откуда: Free-Tor.com

Отдача: не определено

Загрузка: не определено

Нажми

Создавать темы 19-Янв-2019 13:20

[Цитировать]

Страна: США, Канада
Студия: Universal Pictures, Will Packer Productions
Жанр: Комедия
Год выпуска: 2017
Продолжительность: 02:02:03-Перевод: Профессиональный (многоголосый закадровый) Netflix
Субтитры: Русские (Forced, Full), украинские (Full), английские (Full, SDH)
Оригинальная аудиодорожка: английский-Режиссер: Малкольм Д. Ли / Malcolm D. Lee-В ролях: Реджина Холл, Куин Латифа, Джада Пинкетт Смит, Тиффани Хэддиш, Лоренц Тейт, Майк Колтер, Кейт Уолш, Кофи Сирибо, Лара Грайс, Дебора Айоринде-Описание: Четыре лучших подружки отправляются в сам Новый Орлеан на Фестиваль сущности... Маски будут сброшены, дикие стороны раскрыты... А так же танцы, выпивка, флирт и приключения ждут нашу девичью четверку! Удастся ли им выжить?- -Релиз: Zgurvas & -Тип релиза: BDRip 1080p | Girls.Trip.2017.1080p.BluRay.x264.DTS-HD.MA.5.1-HDC
Контейнер: MKV-Видео: AVC, 1920x804 (2.40:1), 23.976 fps, ~ 12.8 Mbps
Аудио 1: Русский E-AC3, 48 KHz, 6 ch, 640 kbps
Аудио 2: Английский DTS, 48 KHz, 6 ch, 1509 kbps
Формат субтитров: Softsub (SRT) + prerendered (Blu-ray/PGS/SUP)-

MediaInfo

-Полное имя : D:Girls.Trip.2017.1080p.BDRip.Rus.Eng.EniaHD.mkv
Формат : Matroska
Версия формата : Version 4
Размер файла : 12,8 Гбайт
Продолжительность : 2 ч. 2 м.
Общий поток : 15,0 Мбит/сек
Название фильма : Улетные девочки (2017)
Дата кодирования : UTC 2019-01-13 08:37:50
Программа кодирования : mkvmerge v30.1.0 ('Forever And More') 32-bit
Библиотека кодирования : libebml v1.3.6 + libmatroska v1.4.9
Обложка : Yes
Attachments : cover.girls.trip.jpg
Видео
Идентификатор : 1
Формат : AVC
Формат/Информация : Advanced Video Codec
Профиль формата : [email protected]
Настройки формата : CABAC / 5 Ref Frames
Параметр CABAC формата : Да
Параметр RefFrames формата : 5 кадров
Идентификатор кодека : V_MPEG4/ISO/AVC
Продолжительность : 2 ч. 2 м.
Битрейт : 12,8 Мбит/сек
Ширина : 1920 пикселей
Высота : 804 пикселя
Соотношение сторон : 2,40:1
Режим частоты кадров : Постоянный
Частота кадров : 23,976 (24000/1001) кадра/сек
Цветовое пространство : YUV
Субдискретизация насыщенности : 4:2:0
Битовая глубина : 8 бит
Тип развёртки : Прогрессивная
Бит/(Пиксели*Кадры) : 0.345
Размер потока : 10,9 Гбайт (85%)
Заголовок : Girls.Trip.2017.1080p.BDRip.Rus.Eng.EniaHD
Библиотека кодирования : x264 core 151 r2836+45 cabfa1f 7mod [[email protected] X86_64]
Настройки программы : cabac=1 / ref=5 / deblock=1:-3:-3 / analyse=0x3:0x133 / me=umh / subme=11 / psy=1 / fade_compensate=0.00 / psy_rd=1.00:0.00 / mixed_ref=1 / me_range=48 / chroma_me=1 / trellis=2 / 8x8dct=1 / cqm=0 / deadzone=21,11 / fast_pskip=0 / chroma_qp_offset=-2 / threads=32 / lookahead_threads=6 / sliced_threads=0 / nr=0 / decimate=0 / interlaced=0 / bluray_compat=0 / constrained_intra=0 / fgo=0 / bframes=10 / b_pyramid=2 / b_adapt=2 / b_bias=0 / direct=3 / weightb=1 / open_gop=0 / weightp=2 / keyint=240 / keyint_min=24 / scenecut=40 / intra_refresh=0 / rc=crf / mbtree=0 / crf=16.8000 / qcomp=0.60 / qpmin=0:0:0 / qpmax=69:69:69 / qpstep=4 / ip_ratio=1.40 / pb_ratio=1.30 / aq=4:1.00 / aq-sensitivity=10.00 / aq-factor=1.00:1.00:1.00 / aq2=0 / aq3=0
Язык : English
Default : Да
Forced : Нет
Цветовой диапазон : Limited
Основные цвета : BT.709
Характеристики трансфера : BT.709
Коэффициенты матрицы : BT.709
Аудио #1
Идентификатор : 2
Формат : E-AC-3
Формат/Информация : Enhanced AC-3
Коммерческое название : Dolby Digital Plus
Идентификатор кодека : A_EAC3
Продолжительность : 2 ч. 2 м.
Вид битрейта : Постоянный
Битрейт : 640 Кбит/сек
Каналы : 6 каналов
Channel layout : L R C LFE Ls Rs
Частота : 48,0 КГц
Частота кадров : 31,250 кадров/сек (1536 SPF)
Метод сжатия : С потерями
Размер потока : 559 Мбайт (4%)
Заголовок : E-AC3 5.1 @ 640 kbps - MVO
Язык : Russian
ServiceKind/ : Complete Main
Default : Да
Forced : Нет
Аудио #2
Идентификатор : 3
Формат : DTS
Формат/Информация : Digital Theater Systems
Идентификатор кодека : A_DTS
Продолжительность : 2 ч. 2 м.
Вид битрейта : Постоянный
Битрейт : 1509 Кбит/сек
Каналы : 6 каналов
Channel layout : C L R Ls Rs LFE
Частота : 48,0 КГц
Частота кадров : 93,750 кадра/сек (512 SPF)
Битовая глубина : 24 бит
Метод сжатия : С потерями
Размер потока : 1,29 Гбайт (10%)
Заголовок : DTS 5.1 @ 1509 kbps - Original
Язык : English
Default : Нет
Forced : Нет
Текст #1
Идентификатор : 4
Формат : UTF-8
Идентификатор кодека : S_TEXT/UTF8
Идентификатор кодека/Информация : UTF-8 Plain Text
Продолжительность : 1 ч. 43 м.
Битрейт : 1 бит/сек
ElementCount : 17
Размер потока : 1009 байт (0%)
Заголовок : Forced
Язык : Russian
Default : Да
Forced : Да
Текст #2
Идентификатор : 5
Формат : UTF-8
Идентификатор кодека : S_TEXT/UTF8
Идентификатор кодека/Информация : UTF-8 Plain Text
Продолжительность : 2 ч. 1 м.
Битрейт : 131 бит/сек
ElementCount : 2130
Размер потока : 117 Кбайт (0%)
Заголовок : Full
Язык : Russian
Default : Нет
Forced : Нет
Текст #3
Идентификатор : 6
Формат : UTF-8
Идентификатор кодека : S_TEXT/UTF8
Идентификатор кодека/Информация : UTF-8 Plain Text
Продолжительность : 2 ч. 1 м.
Битрейт : 124 бит/сек
ElementCount : 2116
Размер потока : 111 Кбайт (0%)
Заголовок : Full
Язык : Ukrainian
Default : Нет
Forced : Нет
Текст #4
Идентификатор : 7
Формат : UTF-8
Идентификатор кодека : S_TEXT/UTF8
Идентификатор кодека/Информация : UTF-8 Plain Text
Продолжительность : 1 ч. 57 м.
Битрейт : 80 бит/сек
ElementCount : 2252
Размер потока : 69,9 Кбайт (0%)
Заголовок : Full
Язык : English
Default : Нет
Forced : Нет
Текст #5
Идентификатор : 8
Формат : UTF-8
Идентификатор кодека : S_TEXT/UTF8
Идентификатор кодека/Информация : UTF-8 Plain Text
Продолжительность : 1 ч. 57 м.
Битрейт : 90 бит/сек
ElementCount : 2433
Размер потока : 78,0 Кбайт (0%)
Заголовок : Full SDH
Язык : English
Default : Нет
Forced : Нет
Текст #6
Идентификатор : 9
Формат : PGS
Идентификатор кодека : S_HDMV/PGS
Идентификатор кодека/Информация : Picture based subtitle format used on BDs/HD-DVDs
Продолжительность : 1 ч. 57 м.
Битрейт : 59,7 Кбит/сек
ElementCount : 4864
Размер потока : 50,4 Мбайт (0%)
Заголовок : Full SDH
Язык : English
Default : Нет
Forced : Нет
Меню
00:00:00.000 : en:Chapter 01
00:04:14.713 : en:Chapter 02
00:12:47.141 : en:Chapter 03
00:18:08.087 : en:Chapter 04
00:22:40.109 : en:Chapter 05
00:30:02.217 : en:Chapter 06
00:36:27.102 : en:Chapter 07
00:43:18.471 : en:Chapter 08
00:50:29.526 : en:Chapter 09
00:56:26.842 : en:Chapter 10
01:03:39.524 : en:Chapter 11
01:12:59.375 : en:Chapter 12
01:18:54.647 : en:Chapter 13
01:24:33.235 : en:Chapter 14
01:30:52.947 : en:Chapter 15
01:34:53.479 : en:Chapter 16
01:41:26.372 : en:Chapter 17
01:46:06.569 : en:Chapter 18
01:53:52.159 : en:Chapter 19
01:58:37.444 : en:Chapter 20
02:02:03.191 : en:Chapter 21-
-

Скриншоты

--
-
[free-tor.info].t18952.torrent 
Торрент: Зарегистрирован [ 2019-01-19 13:20 ] · FA0015602B8C70C6E625EA6F07EA834C5324FC5D

Скачать .torrent

Скачать .torrent

33 KB

Статус: проверено
.torrent скачан: 6 раз
Размер: 12,78 GB
Правила
Похожие темы

[Профиль] [ЛС]
Показать сообщения:    
Ответить на тему

Текущее время: 17-Июл 02:58

Часовой пояс: UTC + 4



Вы не можете начинать темы
Вы не можете отвечать на сообщения
Вы не можете редактировать свои сообщения
Вы не можете удалять свои сообщения
Вы не можете голосовать в опросах
Вы не можете прикреплять файлы к сообщениям
Вы можете скачивать файлы
Анализ веб сайтов Яндекс.Метрика