Идеальная западня / Welcome Home (Джордж Рэтлифф) [2018, триллер, BDRip 1080p от OlLanDGroup | D, P | iTunes]

Ответить на тему
Статистика раздачи [Обновить пиров]
Размер:  9,62 GB   |    Зарегистрирован:  5 месяцев 27 дней   |    .torrent скачан:  9 раз
Сидов:  242  [  0 KB/s  ]   Личеров:  25  [  0 KB/s  ]   Подробная статистика пиров
 
   
 
 
Автор Сообщение

Skorp10n ®

Оффлайн

 Активный раздающий 1 Активный раздающий 2
 Активный релизер 1000 Активный релизер 1500 Активный релизер 2000 Активный релизер 250 Активный релизер 3000 Активный релизер 500 Активный релизер 5000 Активный релизер Фильмов (1000) Активный релизер Фильмов (300) Активный релизер Фильмов (600) Активный Форумчанин 1 Активный Форумчанин 2 Активный Форумчанин 3 Активный Форумчанин 4 Друг трекера Карма 1000 Карма 1500 Карма 3000 Карма 500 Меценат Ни дня без новостей Орденосец 1 степени Орденосец 2 степени Орденосец 3 степени Почетный орденосец Почетный репортер С Новым 2016 Годом! С Новым 2017 Годом! С Новым 2018 Годом! С Новым 2019 Годом! Супер Мега Контер Квейк ТОП-10

Пол: Мужской

Стаж: 3 года 11 месяцев

Наличие запрета:

Сообщений: 11003

Откуда: Free-Tor.com

Отдача: не определено

Загрузка: не определено

Нажми

Создавать темы 25-Янв-2019 15:33

[Цитировать]

Идеальная западня / Welcome Home
«Измена ранит. Ревность убивает»
- Год выпуска: 2018
Страна: США
Производство: AMBI Group, Star Thrower Entertainment, Voltage Pictures
Жанр: Триллер-Режиссёр: Джордж Рэтлифф
В ролях: Аарон Пол, Эмили Ратаковски, Риккардо Скамарчо, Кэти Луиз Саундерс, Элис Беллагамба, Франческо Аквароли, Евгений Крылов, Игорь Михайлов, Дафна Александр, Нав Гхотра-Перевод: Дублированный | [iTunes], Профессиональный (многоголосый, закадровый) | [HDRezka Studio]
Субтитры: Английские (полные, SDH)
Реклама: Отсутствует-Описание: Когда вы куда-то едете, насколько вы уверенны в месте вашего назначения? Почему вы думаете, что с вами ничего не случиться? Вот так рискнули Брайан и Кэсси – пара, чьи отношения рушатся с каждым днём. Им нужно пробудить ту самую искру, которая помогала бы гореть их пламени. Они через один сайт арендовали романтическую виллу в деревушке в Италии. Через некоторое время Кэсси нашла себе нового друга – хорошего и доброго мужчину Федерико, который живёт недалеко. Брайан же явно не смог без зависти прожить в компании этого человека. И Федерико умело играет с этой завистью, чтобы поругать пару. У этого парня весьма зловещие планы на гостей.- -Качество: BDRip 1080p | BDRip 1080p | Welcome.Home.2018.1080p.BluRay.DTS-HD.MA5.1.X264-iFT
Продолжительность: 01:37:51-Формат: MKV
Видео кодек: MPEG-4 AVC
Аудио кодек: AC3
Видео: 1920x800 (2.40:1), 23,976 fps, x264 ~12,0 Мбит/сек, 0.326 bit/pixel
Аудио #1: 48 kHz, AC3 Dolby Digital, 3/2 (L,C,R,l,r) + LFE ch, ~384.00 kbps avg | RUS (iTunes)
Аудио #2: 48 kHz, AC3 Dolby Digital, 2 (L,R) ch, ~192.00 kbps avg | RUS (HDRezka Studio)
Аудио #3: 48 kHz, DTS Digital Theater System, 3/2 (L,C,R,l,r) + LFE ch, ~1 509.00 kbps avg | ENG-Дата премьеры (мир): 8 ноября 2018
Дата премьеры (РФ): 6 декабря 2018, «MEGOGO Distribution»
Цифровой релиз:
-Релиз от: -

MediaInfo

-Общее
Уникальный идентификатор : 20713715566456405580448255795338550589 (0xF955106988E981D4BC266A0435A1D3D)
Полное имя : F:OlLanDGroupWelcome.Home.2018.BDRip(1080p).OlLanDGroup.mkv
Формат : Matroska
Версия формата : Version 4 / Version 2
Размер файла : 9,62 Гбайт
Продолжительность : 1 ч. 37 м.
Общий поток : 14,1 Мбит/сек
Название фильма : Welcome.Home.2018 #TorpedoUK#
Дата кодирования : UTC 2019-01-21 15:42:37
Программа кодирования : mkvmerge v29.0.0 ('Like It Or Not') 64-bit
Библиотека кодирования : libebml v1.3.6 + libmatroska v1.4.9
Видео
Идентификатор : 1
Формат : AVC
Формат/Информация : Advanced Video Codec
Профиль формата : [email protected]
Параметр CABAC формата : Да
Параметр ReFrames формата : 5 кадров
Идентификатор кодека : V_MPEG4/ISO/AVC
Продолжительность : 1 ч. 37 м.
Битрейт : 12,0 Мбит/сек
Ширина : 1920 пикселей
Высота : 800 пикселей
Соотношение сторон : 2,40:1
Режим частоты кадров : Постоянный
Частота кадров : 23,976 (24000/1001) кадра/сек
Цветовое пространство : YUV
Субдискретизация насыщенности : 4:2:0
Битовая глубина : 8 бит
Тип развёртки : Прогрессивная
Бит/(Пиксели*Кадры) : 0.326
Размер потока : 8,20 Гбайт (85%)
Библиотека кодирования : x264 core 142 r2431+42 c69a006 tMod [[email protected] X86_64]
Настройки программы : cabac=1 / ref=5 / deblock=1:-3:-3 / analyse=0x3:0x133 / me=umh / subme=11 / psy=1 / fade_compensate=0.00 / psy_rd=1.05:1.05 / mixed_ref=1 / me_range=48 / chroma_me=1 / trellis=2 / 8x8dct=1 / cqm=0 / deadzone=21,11 / fast_pskip=0 / chroma_qp_offset=-4 / threads=16 / lookahead_threads=2 / sliced_threads=0 / nr=0 / decimate=0 / interlaced=0 / bluray_compat=0 / constrained_intra=0 / fgo=0 / bframes=8 / b_pyramid=2 / b_adapt=2 / b_bias=0 / direct=3 / weightb=1 / open_gop=0 / weightp=2 / keyint=240 / keyint_min=23 / scenecut=40 / intra_refresh=0 / rc_lookahead=240 / rc=2pass / mbtree=0 / bitrate=12000 / ratetol=0.9 / qcomp=0.60 / qpmin=0:0:0 / qpmax=69:69:69 / qpstep=4 / cplxblur=20.0 / qblur=0.5 / vbv_maxrate=62500 / vbv_bufsize=78125 / nal_hrd=none / filler=0 / ip_ratio=1.30 / pb_ratio=1.20 / aq=2:0.60 / aq-sensitivity=10.00 / aq-factor=1.00:1.00:1.00 / aq2=0 / aq3=0
Default : Да
Forced : Нет
Цветовой диапазон : Limited
Основные цвета : BT.709
Характеристики трансфера : BT.709
Коэффициенты матрицы : BT.709
Аудио #1
Идентификатор : 2
Формат : AC-3
Формат/Информация : Audio Coding 3
Расширение режима : CM (complete main)
Параметр Endianness формата : Big
Идентификатор кодека : A_AC3
Продолжительность : 1 ч. 37 м.
Вид битрейта : Постоянный
Битрейт : 384 Кбит/сек
Каналы : 6 каналов
Расположение каналов : Front: L C R, Side: L R, LFE
Частота : 48,0 КГц
Частота кадров : 31,250 кадров/сек (1536 spf)
Битовая глубина : 16 бит
Метод сжатия : С потерями
Размер потока : 268 Мбайт (3%)
Заголовок : DUB [iTunes]
Язык : Russian
Default : Да
Forced : Нет
Аудио #2
Идентификатор : 3
Формат : AC-3
Формат/Информация : Audio Coding 3
Расширение режима : CM (complete main)
Параметр Endianness формата : Big
Идентификатор кодека : A_AC3
Продолжительность : 1 ч. 37 м.
Вид битрейта : Постоянный
Битрейт : 192 Кбит/сек
Каналы : 2 канала
Расположение каналов : Front: L R
Частота : 48,0 КГц
Частота кадров : 31,250 кадров/сек (1536 spf)
Битовая глубина : 16 бит
Метод сжатия : С потерями
Размер потока : 134 Мбайт (1%)
Заголовок : MVO [HDRezka Studio]
Язык : Russian
Default : Нет
Forced : Нет
Аудио #3
Идентификатор : 4
Формат : DTS
Формат/Информация : Digital Theater Systems
Режим : 16
Параметр Endianness формата : Big
Идентификатор кодека : A_DTS
Продолжительность : 1 ч. 37 м.
Вид битрейта : Постоянный
Битрейт : 1509 Кбит/сек
Каналы : 6 каналов
Расположение каналов : Front: L C R, Side: L R, LFE
Частота : 48,0 КГц
Частота кадров : 93,750 кадра/сек (512 spf)
Битовая глубина : 24 бит
Метод сжатия : С потерями
Размер потока : 1,03 Гбайт (11%)
Заголовок : [Original]
Язык : English
Default : Нет
Forced : Нет
Текст #1
Идентификатор : 5
Формат : UTF-8
Идентификатор кодека : S_TEXT/UTF8
Идентификатор кодека/Информация : UTF-8 Plain Text
Продолжительность : 1 ч. 34 м.
Битрейт : 37 бит/сек
Count of elements : 953
Размер потока : 25,8 Кбайт (0%)
Заголовок : Full
Язык : English
Default : Нет
Forced : Нет
Текст #2
Идентификатор : 6
Формат : UTF-8
Идентификатор кодека : S_TEXT/UTF8
Идентификатор кодека/Информация : UTF-8 Plain Text
Продолжительность : 1 ч. 35 м.
Битрейт : 41 бит/сек
Count of elements : 1124
Размер потока : 28,8 Кбайт (0%)
Заголовок : SDH
Язык : English
Default : Нет
Forced : Нет
Меню
00:00:00.000 : :Chapter 01
00:06:42.068 : :Chapter 02
00:12:26.996 : :Chapter 03
00:18:53.006 : :Chapter 04
00:25:27.943 : :Chapter 05
00:32:08.051 : :Chapter 06
00:37:09.393 : :Chapter 07
00:42:48.941 : :Chapter 08
00:48:54.389 : :Chapter 09
00:53:10.687 : :Chapter 10
00:59:34.779 : :Chapter 11
01:05:20.791 : :Chapter 12
01:10:48.744 : :Chapter 13
01:16:07.145 : :Chapter 14
01:22:30.236 : :Chapter 15
01:28:50.366 : :Chapter 16
01:34:49.433 : :Chapter 17
01:37:50.823 : :Chapter 18-
-

Скриншоты

--
-
[free-tor.info].t19039.torrent 
Торрент: Зарегистрирован [ 2019-01-25 15:33 ] · 041592E47DBD7F9AD185B6F4009157488EC102F2

Скачать .torrent

Скачать .torrent

49 KB

Статус: проверено
.torrent скачан: 9 раз
Размер: 9,62 GB
Правила
Похожие темы

[Профиль] [ЛС]
Показать сообщения:    
Ответить на тему

Текущее время: 22-Июл 09:21

Часовой пояс: UTC + 4



Вы не можете начинать темы
Вы не можете отвечать на сообщения
Вы не можете редактировать свои сообщения
Вы не можете удалять свои сообщения
Вы не можете голосовать в опросах
Вы не можете прикреплять файлы к сообщениям
Вы можете скачивать файлы
Анализ веб сайтов Яндекс.Метрика