Хрусталь (Дарья Жук) [2018, драма, WEB-DL 1080p | iTunes]

Ответить на тему
Статистика раздачи [Обновить пиров]
Размер:  3,21 GB   |    Зарегистрирован:  5 месяцев 22 дня   |    .torrent скачан:  5 раз
Сидов:  155  [  0 KB/s  ]   Личеров:  6  [  0 KB/s  ]   Подробная статистика пиров
 
   
 
 
Автор Сообщение

Skorp10n ®

Оффлайн

 Активный раздающий 1 Активный раздающий 2
 Активный релизер 1000 Активный релизер 1500 Активный релизер 2000 Активный релизер 250 Активный релизер 3000 Активный релизер 500 Активный релизер 5000 Активный релизер Фильмов (1000) Активный релизер Фильмов (300) Активный релизер Фильмов (600) Активный Форумчанин 1 Активный Форумчанин 2 Активный Форумчанин 3 Активный Форумчанин 4 Друг трекера Карма 1000 Карма 1500 Карма 3000 Карма 500 Меценат Ни дня без новостей Орденосец 1 степени Орденосец 2 степени Орденосец 3 степени Почетный орденосец Почетный репортер С Новым 2016 Годом! С Новым 2017 Годом! С Новым 2018 Годом! С Новым 2019 Годом! Супер Мега Контер Квейк ТОП-10

Пол: Мужской

Стаж: 3 года 11 месяцев

Наличие запрета:

Сообщений: 10847

Откуда: Free-Tor.com

Отдача: не определено

Загрузка: не определено

Нажми

Создавать темы 25-Янв-2019 16:05

[Цитировать]

Информация о фильме- Название: Хрусталь
Год выпуска: 2018
Жанр: Драма
Режиссер: Дарья Жук
В ролях: Алина Насибуллина, Иван Мулин, Юрий Борисов, Светлана Аникей, Илья Капанец, Людмила Разумова, Наталья Онищенко, Вячеслав Шкалидо, Анатолий Голуб, Артем Курень-Описание: 90-е годы. Творческая девушка диджей Веля из Минска мечтает уехать в Америку. Из-за ошибки в поддельной справке на визу она оказывается в незнакомой семье небольшого городка. Пока приютившие ее люди заняты приготовлением к свадьбе, она собирается во что бы то ни стало добиться исполнения своей «хрустальной мечты».- -Страна: Беларусь, Германия, США, Россия
Студия: DEMARSH film, Vice Studios
Продолжительность: 01:33:07
Перевод: Не требуется-Файл-Качество: WEB-DL 1080p
Контейнер: MKV
Видео: MPEG-4 AVC, 1386x1080, Display aspect ratio 1.283:1, 24.000 fps, 4452 Kbps
Аудио: Русский: AC3, 16 bits, 48 Khz, 5.1 ch, 384 Kbps
Субтитры: Русские (hardsub) (на несколько английских диалогов в начале фильма)-Релиз от: george$t-

MediaInfo

-General
Unique ID : 225647980734292805329011043637752105124 (0xA9C238657E5A1C37A6958DF849E208A4)
Complete name : Хрусталь.2018.mkv
Format : Matroska
Format version : Version 2
File size : 3.21 GiB
Duration : 1 h 33 min
Overall bit rate : 4 934 kb/s
Encoded date : UTC 2019-01-22 08:41:09
Writing application : mkvmerge v7.8.0 ('River Man') 32bit built on Mar 27 2015 16:18:02
Writing library : libebml v1.3.1 + libmatroska v1.4.2
Video
ID : 1
Format : AVC
Format/Info : Advanced Video Codec
Format profile : [email protected]
Format settings : CABAC / 5 Ref Frames
Format settings, CABAC : Yes
Format settings, ReFrames : 5 frames
Codec ID : V_MPEG4/ISO/AVC
Duration : 1 h 33 min
Bit rate : 4 452 kb/s
Width : 1 386 pixels
Height : 1 080 pixels
Display aspect ratio : 1.283
Frame rate mode : Constant
Frame rate : 24.000 FPS
Color space : YUV
Chroma subsampling : 4:2:0
Bit depth : 8 bits
Scan type : Progressive
Bits/(Pixel*Frame) : 0.124
Stream size : 2.90 GiB (90%)
Title : Хрусталь 2018
Language : Russian
Default : Yes
Forced : No
Color range : Limited
Color primaries : BT.709
Transfer characteristics : BT.709
Matrix coefficients : BT.709
Audio
ID : 2
Format : AC-3
Format/Info : Audio Coding 3
Codec ID : A_AC3
Duration : 1 h 33 min
Bit rate mode : Constant
Bit rate : 384 kb/s
Channel(s) : 6 channels
Channel positions : Front: L C R, Side: L R, LFE
Sampling rate : 48.0 kHz
Frame rate : 31.250 FPS (1536 SPF)
Bit depth : 16 bits
Compression mode : Lossy
Stream size : 256 MiB (8%)
Title : AC-3; 16 bits 48 Khz; 5.1ch 384 Kbps; CBR
Language : Russian
Service kind : Complete Main
Default : Yes
Forced : No-
-

Скриншоты

--
-
[free-tor.info].t19049.torrent 
Торрент: Зарегистрирован [ 2019-01-25 16:05 ] · 797B1B0ED69BF7305CE8D6B21772563AEF7A0356

Скачать .torrent

Скачать .torrent

17 KB

Статус: проверено
.torrent скачан: 5 раз
Размер: 3,21 GB
Правила
Похожие темы

[Профиль] [ЛС]
Показать сообщения:    
Ответить на тему

Текущее время: 17-Июл 02:44

Часовой пояс: UTC + 4



Вы не можете начинать темы
Вы не можете отвечать на сообщения
Вы не можете редактировать свои сообщения
Вы не можете удалять свои сообщения
Вы не можете голосовать в опросах
Вы не можете прикреплять файлы к сообщениям
Вы можете скачивать файлы
Анализ веб сайтов Яндекс.Метрика