Хэллфест / Hell Fest (Грегори Плоткин) [2018, ужасы, BDRip 1080p | iTunes]

Ответить на тему
Статистика раздачи [Обновить пиров]
Размер:  6,79 GB   |    Зарегистрирован:  5 месяцев 22 дня   |    .torrent скачан:  9 раз
Сидов:  406  [  0 KB/s  ]   Личеров:  23  [  0 KB/s  ]   Подробная статистика пиров
 
   
 
 
Автор Сообщение

Skorp10n ®

Оффлайн

 Активный раздающий 1 Активный раздающий 2
 Активный релизер 1000 Активный релизер 1500 Активный релизер 2000 Активный релизер 250 Активный релизер 3000 Активный релизер 500 Активный релизер 5000 Активный релизер Фильмов (1000) Активный релизер Фильмов (300) Активный релизер Фильмов (600) Активный Форумчанин 1 Активный Форумчанин 2 Активный Форумчанин 3 Активный Форумчанин 4 Друг трекера Карма 1000 Карма 1500 Карма 3000 Карма 500 Меценат Ни дня без новостей Орденосец 1 степени Орденосец 2 степени Орденосец 3 степени Почетный орденосец Почетный репортер С Новым 2016 Годом! С Новым 2017 Годом! С Новым 2018 Годом! С Новым 2019 Годом! Супер Мега Контер Квейк ТОП-10

Пол: Мужской

Стаж: 3 года 11 месяцев

Наличие запрета:

Сообщений: 10847

Откуда: Free-Tor.com

Отдача: не определено

Загрузка: не определено

Нажми

Создавать темы 25-Янв-2019 16:23

[Цитировать]

Информация о фильме- Название: Хэллфест
Оригинальное название: Hell Fest
Год выхода: 2018
Жанр: Ужасы
Страна: США
Перевод: Дублированный | iTunes
Продолжительность: 01:28:48
Режиссер: Грегори Плоткин
В ролях: Эми Форсайт, Рейн Эдвардс, Бекс Тейлор-Клаус, Кристиан Балис, Мэтт Меркьюрио, Роби Аттал, Тони Тодд, Кортни Дитц, Стивен Конрой, Микаэль Турек и др.-О фильме: Три подруги встречаются накануне Хэллоуина и вместе со своими парнями решают отметить праздник походом на Хэллфест, популярный фестиваль, главная цель организаторов которого — напугать посетителей до полусмерти. Но для серийного убийцы в маске Хэллфест — это не просто карнавал ужасов, а площадка для смертельных игр. В этот раз он решает преследовать Натали, и теперь жизни девушки и её друзей находятся в большой опасности.- -Файл-Качество: BDRip 1080p
Видео: MPEG-4 AVC, 1920x1036, 10117 kbps, 23,976 fps
Звук#1: русский, AC3, 5.1 ch, 48 kHz, 384 kbps | iTunes
Звук#2: английский, AC3, 5.1 ch, 48 kHz, 448 kbps | оригинал
Субтитры: английские (полные, SDH)-

MI

-General
Уникальный идентификатор : 189680614899112158107364536894437116886 (0x8EB3285927B28AE9850194A4C9FECBD6)
Полное имя : E:TorrentHellFestBDRip1080p.mkv
Формат : Matroska
Версия формата : Version 4 / Version 2
Размер файла : 6.79 GiB
Продолжительность : 1 h 28 min
Общий поток : 11.0 Mb/s
Дата кодирования : UTC 2019-01-24 11:00:36
Программа кодирования : mkvmerge v9.5.0 ('Quiet Fire') 64bit
Библиотека кодирования : libebml v1.3.4 + libmatroska v1.4.5
Video
Идентификатор : 1
Формат : AVC
Формат/Информация : Advanced Video Codec
Профиль формата : [email protected]
Настройки формата : CABAC / 4 Ref Frames
Параметр CABAC формата : Yes
Параметр RefFrames формата : 4 frames
Идентификатор кодека : V_MPEG4/ISO/AVC
Продолжительность : 1 h 28 min
Битрейт : 10.1 Mb/s
Ширина : 1 920 pixels
Высота : 1 036 pixels
Соотношение сторон : 1.85:1
Режим частоты кадров : Constant
Частота кадров : 23.976 (24000/1001) FPS
Цветовое пространство : YUV
Субдискретизация насыщенности : 4:2:0
Битовая глубина : 8 bits
Тип развёртки : Progressive
Бит/(Пиксели*Кадры) : 0.212
Размер потока : 6.28 GiB (92%)
Библиотека кодирования : x264 core 157 r2935 545de2f
Настройки программы : cabac=1 / ref=4 / deblock=1:-1:-1 / analyse=0x3:0x113 / me=umh / subme=11 / psy=1 / psy_rd=1.00:0.00 / mixed_ref=1 / me_range=32 / chroma_me=1 / trellis=2 / 8x8dct=1 / cqm=0 / deadzone=21,11 / fast_pskip=0 / chroma_qp_offset=-2 / threads=9 / lookahead_threads=2 / sliced_threads=0 / nr=0 / decimate=0 / interlaced=0 / bluray_compat=0 / constrained_intra=0 / bframes=14 / b_pyramid=2 / b_adapt=2 / b_bias=0 / direct=3 / weightb=1 / open_gop=0 / weightp=2 / keyint=240 / keyint_min=24 / scenecut=40 / intra_refresh=0 / rc_lookahead=120 / rc=2pass / mbtree=0 / bitrate=10117 / ratetol=1.0 / qcomp=0.70 / qpmin=0 / qpmax=69 / qpstep=4 / cplxblur=20.0 / qblur=0.5 / vbv_maxrate=50000 / vbv_bufsize=62500 / nal_hrd=none / filler=0 / ip_ratio=1.40 / pb_ratio=1.30 / aq=3:0.80
Язык : English
Default : Yes
Forced : No
Audio #1
Идентификатор : 2
Формат : AC-3
Формат/Информация : Audio Coding 3
Идентификатор кодека : A_AC3
Продолжительность : 1 h 28 min
Вид битрейта : Constant
Битрейт : 384 kb/s
Каналы : 6 channels
Расположение каналов : Front: L C R, Side: L R, LFE
Частота : 48.0 kHz
Частота кадров : 31.250 FPS (1536 SPF)
Битовая глубина : 16 bits
Метод сжатия : Lossy
Размер потока : 244 MiB (4%)
Язык : Russian
Default : Yes
Forced : No
Audio #2
Идентификатор : 3
Формат : AC-3
Формат/Информация : Audio Coding 3
Идентификатор кодека : A_AC3
Продолжительность : 1 h 28 min
Вид битрейта : Constant
Битрейт : 448 kb/s
Каналы : 6 channels
Расположение каналов : Front: L C R, Side: L R, LFE
Частота : 48.0 kHz
Частота кадров : 31.250 FPS (1536 SPF)
Битовая глубина : 16 bits
Метод сжатия : Lossy
Размер потока : 285 MiB (4%)
Язык : English
Default : No
Forced : No
Text #1
Идентификатор : 4
Формат : UTF-8
Идентификатор кодека : S_TEXT/UTF8
Идентификатор кодека/Информация : UTF-8 Plain Text
Продолжительность : 1 h 23 min
Битрейт : 58 b/s
ElementCount : 1136
Размер потока : 35.5 KiB (0%)
Заголовок : engFull
Язык : English
Default : No
Forced : No
Text #2
Идентификатор : 5
Формат : UTF-8
Идентификатор кодека : S_TEXT/UTF8
Идентификатор кодека/Информация : UTF-8 Plain Text
Продолжительность : 1 h 23 min
Битрейт : 73 b/s
ElementCount : 1479
Размер потока : 44.8 KiB (0%)
Заголовок : engSDH
Язык : English
Default : No
Forced : No
Menu
00:00:00.000 : :Chapter 01
00:04:28.977 : :Chapter 02
00:12:09.979 : :Chapter 03
00:15:44.026 : :Chapter 04
00:22:44.029 : :Chapter 05
00:28:22.242 : :Chapter 06
00:35:17.365 : :Chapter 07
00:40:37.226 : :Chapter 08
00:43:37.781 : :Chapter 09
00:49:16.620 : :Chapter 10
00:53:22.407 : :Chapter 11
01:00:07.770 : :Chapter 12
01:06:43.582 : :Chapter 13
01:11:33.455 : :Chapter 14
01:16:33.589 : :Chapter 15
01:21:53.325 : :Chapter 16-
-

Скриншоты

--
-Релиз от: -
[free-tor.info].t19056.torrent 
Торрент: Зарегистрирован [ 2019-01-25 16:23 ] · 7B8C87A6BD268F8716A4290BDB8D82710F4F483E

Скачать .torrent

Скачать .torrent

18 KB

Статус: проверено
.torrent скачан: 9 раз
Размер: 6,79 GB
Правила
Похожие темы

[Профиль] [ЛС]
Показать сообщения:    
Ответить на тему

Текущее время: 17-Июл 02:21

Часовой пояс: UTC + 4



Вы не можете начинать темы
Вы не можете отвечать на сообщения
Вы не можете редактировать свои сообщения
Вы не можете удалять свои сообщения
Вы не можете голосовать в опросах
Вы не можете прикреплять файлы к сообщениям
Вы можете скачивать файлы
Анализ веб сайтов Яндекс.Метрика