Богемская рапсодия / Bohemian Rhapsody [2018, драма, биография, музыка, WEB-DL 1080p от селезень | iTunes]

Ответить на тему
Статистика раздачи [Обновить пиров]
Размер:  7,67 GB   |    Зарегистрирован:  5 месяцев 22 дня   |    .torrent скачан:  13 раз
Сидов:  2212  [  0 KB/s  ]   Личеров:  50  [  0 KB/s  ]   Подробная статистика пиров
 
   
 
 
Автор Сообщение

Skorp10n ®

Оффлайн

 Активный раздающий 1 Активный раздающий 2
 Активный релизер 1000 Активный релизер 1500 Активный релизер 2000 Активный релизер 250 Активный релизер 3000 Активный релизер 500 Активный релизер 5000 Активный релизер Фильмов (1000) Активный релизер Фильмов (300) Активный релизер Фильмов (600) Активный Форумчанин 1 Активный Форумчанин 2 Активный Форумчанин 3 Активный Форумчанин 4 Друг трекера Карма 1000 Карма 1500 Карма 3000 Карма 500 Меценат Ни дня без новостей Орденосец 1 степени Орденосец 2 степени Орденосец 3 степени Почетный орденосец Почетный репортер С Новым 2016 Годом! С Новым 2017 Годом! С Новым 2018 Годом! С Новым 2019 Годом! Супер Мега Контер Квейк ТОП-10

Пол: Мужской

Стаж: 3 года 11 месяцев

Наличие запрета:

Сообщений: 10847

Откуда: Free-Tor.com

Отдача: не определено

Загрузка: не определено

Нажми

Создавать темы 25-Янв-2019 16:46

[Цитировать]

Информация о фильме- Название: Богемская рапсодия
Оригинальное название: Bohemian Rhapsody
Год выхода: 2018
Жанр: Драма, биография, музыка
Режиссер: Брайан Сингер
В ролях: Рами Малек, Люси Бойнтон, Гвилим Ли, Бен Харди, Джозеф Маццелло, Майк Майерс, Эйден Гиллен, Том Холландер, Аллен Лич, Аарон МакКаскер, Эйс Бхатти, Прия Блэкберн, Дермот Мерфи, Тим Плестер, Дики Бо- -О фильме: Чествование группы Queen, их музыки и их выдающегося вокалиста Фредди Меркьюри, который бросил вызов стереотипам и победил условности, чтобы стать одним из самых любимых артистов на планете. Фильм прослеживает головокружительный путь группы к успеху, благодаря их культовым песням и революционному звуку, практически распад коллектива, поскольку образ жизни Меркьюри выходит из-под контроля, и их триумфальное воссоединение накануне концерта Live Aid, ставшим одним из величайших выступлений в истории рок-музыки.-Страна: Великобритания, США
Студия: GK Films, New Regency Pictures, Queen Films Ltd.
Продолжительность: 02:15:19
Перевод: Дублированный | iTunes-Качество: WEB-DL 1080p | AMAZON Version
Видео: MPEG-4 AVC, 1920x800, 7008 Kbit/s, 23.976 fps
Звук:
Аудио #01: 48 kHz, AC3, 5.1, 384 Kbps | iTunes | RUS |
Аудио #02: 48 kHz, AAC, 2.0, 122 Kbps | iTunes | UKR |
Аудио #03: 48 kHz, E-AC3, 5.1, 640 Kbps | Оригинал | ENG |
Субтитры: Русские (Forced, full), украинские (Forced, full), английские (SDH, SDH Colored)-

Скриншоты

--
-

MI

-General
Unique ID : 267377664796281249732549451092416740826 (0xC92710AAFE42071ACD89373AC5833DDA)
Complete name : D:Video111Bohemian.Rhapsody.2018.AMZN.WEB-DL.1080p.seleZen.mkv
Format : Matroska
Format version : Version 4
File size : 7.67 GiB
Duration : 2 h 14 min
Overall bit rate : 8 158 kb/s
Movie name : Bohemian Rhapsody 2018 from селезень
Encoded date : UTC 2019-01-25 06:59:19
Writing application : mkvmerge v29.0.0 ('Like It Or Not') 64-bit
Writing library : libebml v1.3.6 + libmatroska v1.4.9
Video
ID : 1
Format : AVC
Format/Info : Advanced Video Codec
Format profile : [email protected]
Format settings : CABAC / 4 Ref Frames
Format settings, CABAC : Yes
Format settings, ReFrames : 4 frames
Codec ID : V_MPEG4/ISO/AVC
Duration : 2 h 14 min
Bit rate mode : Constant
Bit rate : 7 008 kb/s
Nominal bit rate : 10 000 kb/s
Width : 1 920 pixels
Height : 800 pixels
Display aspect ratio : 2.40:1
Frame rate mode : Constant
Frame rate : 23.976 (24000/1001) FPS
Color space : YUV
Chroma subsampling : 4:2:0
Bit depth : 8 bits
Scan type : Progressive
Bits/(Pixel*Frame) : 0.190
Stream size : 6.59 GiB (86%)
Language : English
Default : Yes
Forced : No
Color range : Limited
Color primaries : BT.709
Transfer characteristics : BT.709
Matrix coefficients : BT.709
Audio #1
ID : 2
Format : AC-3
Format/Info : Audio Coding 3
Commercial name : Dolby Digital
Codec ID : A_AC3
Duration : 2 h 14 min
Bit rate mode : Constant
Bit rate : 384 kb/s
Channel(s) : 6 channels
Channel layout : L R C LFE Ls Rs
Sampling rate : 48.0 kHz
Frame rate : 31.250 FPS (1536 SPF)
Bit depth : 16 bits
Compression mode : Lossy
Stream size : 370 MiB (5%)
Title : iTunes
Language : Russian
Service kind : Complete Main
Default : Yes
Forced : Yes
Audio #2
ID : 3
Format : AAC LC
Format/Info : Advanced Audio Codec Low Complexity
Codec ID : A_AAC-2
Duration : 2 h 14 min
Bit rate : 122 kb/s
Channel(s) : 2 channels
Channel layout : L R
Sampling rate : 44.1 kHz
Frame rate : 43.066 FPS (1024 SPF)
Compression mode : Lossy
Stream size : 118 MiB (1%)
Title : iTunes
Language : Ukrainian
Default : No
Forced : No
Audio #3
ID : 4
Format : E-AC-3
Format/Info : Enhanced AC-3
Commercial name : Dolby Digital Plus
Codec ID : A_EAC3
Duration : 2 h 14 min
Bit rate mode : Constant
Bit rate : 640 kb/s
Channel(s) : 6 channels
Channel layout : L R C LFE Ls Rs
Sampling rate : 48.0 kHz
Frame rate : 31.250 FPS (1536 SPF)
Compression mode : Lossy
Stream size : 616 MiB (8%)
Title : Original
Language : English
Service kind : Complete Main
Default : No
Forced : No
Text #1
ID : 5
Format : UTF-8
Codec ID : S_TEXT/UTF8
Codec ID/Info : UTF-8 Plain Text
Duration : 2 h 13 min
Bit rate : 2 b/s
Count of elements : 55
Stream size : 2.81 KiB (0%)
Title : Forced
Language : Russian
Default : Yes
Forced : Yes
Text #2
ID : 6
Format : UTF-8
Codec ID : S_TEXT/UTF8
Codec ID/Info : UTF-8 Plain Text
Duration : 2 h 13 min
Bit rate : 72 b/s
Count of elements : 1753
Stream size : 70.7 KiB (0%)
Title : Full
Language : Russian
Default : No
Forced : No
Text #3
ID : 7
Format : UTF-8
Codec ID : S_TEXT/UTF8
Codec ID/Info : UTF-8 Plain Text
Duration : 2 h 13 min
Bit rate : 3 b/s
Count of elements : 71
Stream size : 3.87 KiB (0%)
Title : Forced
Language : Ukrainian
Default : No
Forced : No
Text #4
ID : 8
Format : UTF-8
Codec ID : S_TEXT/UTF8
Codec ID/Info : UTF-8 Plain Text
Duration : 2 h 13 min
Bit rate : 77 b/s
Count of elements : 1753
Stream size : 75.4 KiB (0%)
Title : Full
Language : Ukrainian
Default : No
Forced : No
Text #5
ID : 9
Format : UTF-8
Codec ID : S_TEXT/UTF8
Codec ID/Info : UTF-8 Plain Text
Duration : 2 h 11 min
Bit rate : 68 b/s
Count of elements : 2268
Stream size : 65.6 KiB (0%)
Title : SDH
Language : English
Default : No
Forced : No
Text #6
ID : 10
Format : UTF-8
Codec ID : S_TEXT/UTF8
Codec ID/Info : UTF-8 Plain Text
Duration : 2 h 11 min
Bit rate : 92 b/s
Count of elements : 2269
Stream size : 88.9 KiB (0%)
Title : SDH Colored
Language : English
Default : No
Forced : No
Menu
00:00:00.000 : en:Studio Logos
00:00:44.000 : en:Opening Credits | Live Aid Preparations
00:03:49.000 : en:Good thoughts, good words, good deeds
00:05:14.000 : en:Freddie finds an opportunity
00:09:38.000 : en:Freddie takes a shopping risk
00:11:17.000 : en:The band's first gig
00:13:27.000 : en:Queen makes their first album
00:16:06.000 : en:Time for a name change
00:21:03.000 : en:The band meets with John Reid
00:22:50.000 : en:Queen makes their BBC debut
00:24:15.000 : en:A day full of exciting news
00:27:24.000 : en:Queen tours America
00:29:52.000 : en:A musical experience vs. just another record
00:33:29.000 : en:Getting away from all distractions
00:34:17.000 : en:Paul only sees what he wants to see
00:37:22.000 : en:Brainstorming leads to a breakthrough
00:43:00.000 : en:Bohemian Rhapsody isn't for everyone
00:47:33.000 : en:Queen gives Bohemian Rhapsody to the people
00:50:18.000 : en:Mary and Freddie start to grow apart
00:56:57.000 : en:Freddie realizes he's lonely
01:00:24.000 : en:Freddie throws a party for misfits
01:03:07.000 : en:Distractions for the in-between moments
01:05:46.000 : en:A way to involve the audience
01:10:01.000 : en:Freddie feels betrayed
01:15:09.000 : en:Queen capitalizes on club culture
01:19:04.000 : en:Freddie feels the pressure of public life
01:21:42.000 : en:Freddie wants to break free
01:26:59.000 : en:Paul takes over Freddie's life
01:28:42.000 : en:Freddie seems to have lost his voice
01:36:05.000 : en:Freddie tries to reconnect with his family
01:43:26.000 : en:It's time to face the truth
01:46:06.000 : en:Freddie doesn't want sympathy
01:49:11.000 : en:Freddie has tea before the show
01:52:47.000 : en:Everyone gets ready for the show
01:55:03.000 : en:Live Aid concert 1985
02:08:34.000 : en:Acknowledgement
02:09:15.000 : en:End Credits-
-Релиз от: -
[free-tor.info].t19065.torrent 
Торрент: Зарегистрирован [ 2019-01-25 16:46 ] · 4C089C4FB7F8B35CE2C8B8F976CC62B65DB8C7E1

Скачать .torrent

Скачать .torrent

11 KB

Статус: проверено
.torrent скачан: 13 раз
Размер: 7,67 GB
Правила
Похожие темы

[Профиль] [ЛС]
Показать сообщения:    
Ответить на тему

Текущее время: 17-Июл 02:18

Часовой пояс: UTC + 4



Вы не можете начинать темы
Вы не можете отвечать на сообщения
Вы не можете редактировать свои сообщения
Вы не можете удалять свои сообщения
Вы не можете голосовать в опросах
Вы не можете прикреплять файлы к сообщениям
Вы можете скачивать файлы
Анализ веб сайтов Яндекс.Метрика