Репродукция / Replicas (Джеффри Начманофф) [2018, фантастика, триллер, WEB-DL 1080p от селезень | iTunes]

Ответить на тему
Статистика раздачи [Обновить пиров]
Размер:  3,55 GB   |    Зарегистрирован:  5 месяцев 22 дня   |    .torrent скачан:  38 раз
Сидов:  7530  [  0 KB/s  ]   Личеров:  212  [  0 KB/s  ]   Подробная статистика пиров
 
   
 
 
Автор Сообщение

Skorp10n ®

Оффлайн

 Активный раздающий 1 Активный раздающий 2
 Активный релизер 1000 Активный релизер 1500 Активный релизер 2000 Активный релизер 250 Активный релизер 3000 Активный релизер 500 Активный релизер 5000 Активный релизер Фильмов (1000) Активный релизер Фильмов (300) Активный релизер Фильмов (600) Активный Форумчанин 1 Активный Форумчанин 2 Активный Форумчанин 3 Активный Форумчанин 4 Друг трекера Карма 1000 Карма 1500 Карма 3000 Карма 500 Меценат Ни дня без новостей Орденосец 1 степени Орденосец 2 степени Орденосец 3 степени Почетный орденосец Почетный репортер С Новым 2016 Годом! С Новым 2017 Годом! С Новым 2018 Годом! С Новым 2019 Годом! Супер Мега Контер Квейк ТОП-10

Пол: Мужской

Стаж: 3 года 11 месяцев

Наличие запрета:

Сообщений: 10847

Откуда: Free-Tor.com

Отдача: не определено

Загрузка: не определено

Нажми

Создавать темы 25-Янв-2019 16:53

[Цитировать]

Информация о фильме- Название: Репродукция
Оригинальное название: Replicas
Год выхода: 2018
Жанр: Фантастика, триллер
Режиссер: Джеффри Начманофф
В ролях: Киану Ривз, Элис Ив, Эмили Элин Линд, Томас Миддлдитч, Джон Ортис, Эмджей Энтони, Няша Хатенди, Ария Лайрик Либу, Эмбер Таунсенд, Эмбер Ривера, Джеффри Хольсман, Саншайн Логроньо, Иван Дж. Торрес Ласанта, Омар Крус Сото- -О фильме: Талантливый ученый-биолог теряет в автокатастрофе свою семью. Одержимый желанием вернуть к жизни жену и детей, он преступает законы научной этики и самой природы. Но когда информация о репродукции человека доходит до властей, на ученого и воскрешенных им близких начинается охота.-Страна: США
Студия: Company Films, Di Bonaventura Pictures, Riverstone Pictures
Продолжительность: 01:42:52
Перевод: Дублированный | iTunes-Качество: WEB-DL 1080p
Видео: MPEG-4 AVC, 1920x804, 4555 Kbit/s, 25 fps
Аудио: 48 kHz, AC3, 5.1, 384 Kbps | iTunes | RUS | -

Скриншоты

--
-

MI

-General
Unique ID : 215232764404715552617621622415485609099 (0xA1EC5295C8CE1A0C9E6B56575F74A48B)
Complete name : D:Video111Replicas.2018.WEB-DL.1080p.seleZen.mkv
Format : Matroska
Format version : Version 4
File size : 3.55 GiB
Duration : 1 h 42 min
Overall bit rate : 4 941 kb/s
Movie name : Replicas 2018 from селезень
Encoded date : UTC 2019-01-25 02:58:58
Writing application : mkvmerge v29.0.0 ('Like It Or Not') 64-bit
Writing library : libebml v1.3.6 + libmatroska v1.4.9
Video
ID : 1
Format : AVC
Format/Info : Advanced Video Codec
Format profile : [email protected]
Format settings : CABAC / 5 Ref Frames
Format settings, CABAC : Yes
Format settings, ReFrames : 5 frames
Codec ID : V_MPEG4/ISO/AVC
Duration : 1 h 42 min
Bit rate : 4 555 kb/s
Width : 1 920 pixels
Height : 804 pixels
Display aspect ratio : 2.40:1
Frame rate mode : Constant
Frame rate : 25.000 FPS
Color space : YUV
Chroma subsampling : 4:2:0
Bit depth : 8 bits
Scan type : Progressive
Bits/(Pixel*Frame) : 0.118
Stream size : 3.27 GiB (92%)
Language : English
Default : Yes
Forced : No
Color range : Limited
Color primaries : BT.709
Transfer characteristics : BT.709
Matrix coefficients : BT.709
Audio
ID : 2
Format : AC-3
Format/Info : Audio Coding 3
Commercial name : Dolby Digital
Codec ID : A_AC3
Duration : 1 h 42 min
Bit rate mode : Constant
Bit rate : 384 kb/s
Channel(s) : 6 channels
Channel layout : L R C LFE Ls Rs
Sampling rate : 48.0 kHz
Frame rate : 31.250 FPS (1536 SPF)
Bit depth : 16 bits
Compression mode : Lossy
Stream size : 283 MiB (8%)
Title : iTunes
Language : Russian
Service kind : Complete Main
Default : Yes
Forced : Yes
Menu
00:00:00.000 : en:Глава 1
00:07:19.080 : en:Глава 2
00:11:50.240 : en:Глава 3
00:17:00.960 : en:Глава 4
00:22:13.599 : en:Глава 5
00:28:38.158 : en:Глава 6
00:33:42.398 : en:Глава 7
00:40:11.717 : en:Глава 8
00:44:39.396 : en:Глава 9
00:50:00.515 : en:Глава 10
00:55:48.355 : en:Глава 11
01:01:01.994 : en:Глава 12
01:07:02.673 : en:Глава 13
01:12:15.153 : en:Глава 14
01:20:08.833 : en:Глава 15
01:26:17.272 : en:Глава 16-
-Релиз от: -
[free-tor.info].t19068.torrent 
Торрент: Зарегистрирован [ 2019-01-25 16:53 ] · 0A0A703A412D2B1C00A79EE4B2A366362719210A

Скачать .torrent

Скачать .torrent

6 KB

Статус: проверено
.torrent скачан: 38 раз
Размер: 3,55 GB
Правила
Похожие темы

[Профиль] [ЛС]
Показать сообщения:    
Ответить на тему

Текущее время: 17-Июл 02:54

Часовой пояс: UTC + 4



Вы не можете начинать темы
Вы не можете отвечать на сообщения
Вы не можете редактировать свои сообщения
Вы не можете удалять свои сообщения
Вы не можете голосовать в опросах
Вы не можете прикреплять файлы к сообщениям
Вы можете скачивать файлы
Анализ веб сайтов Яндекс.Метрика