Хроники хищных городов / Mortal Engines (Кристиан Риверс) [2018, фантастика, фэнтези, боевик, триллер, приключения, WEB-DL 1080p от селезень | iTunes]

Ответить на тему
Статистика раздачи [Обновить пиров]
Размер:  4,38 GB   |    Зарегистрирован:  5 месяцев 16 дней   |    .torrent скачан:  63 раза
Сидов:  12823  [  0 KB/s  ]   Личеров:  420  [  0 KB/s  ]   Подробная статистика пиров
 
   
 
 
Автор Сообщение

Skorp10n ®

Оффлайн

 Активный раздающий 1 Активный раздающий 2
 Активный релизер 1000 Активный релизер 1500 Активный релизер 2000 Активный релизер 250 Активный релизер 3000 Активный релизер 500 Активный релизер 5000 Активный релизер Фильмов (1000) Активный релизер Фильмов (300) Активный релизер Фильмов (600) Активный Форумчанин 1 Активный Форумчанин 2 Активный Форумчанин 3 Активный Форумчанин 4 Друг трекера Карма 1000 Карма 1500 Карма 3000 Карма 500 Меценат Ни дня без новостей Орденосец 1 степени Орденосец 2 степени Орденосец 3 степени Почетный орденосец Почетный репортер С Новым 2016 Годом! С Новым 2017 Годом! С Новым 2018 Годом! С Новым 2019 Годом! Супер Мега Контер Квейк ТОП-10

Пол: Мужской

Стаж: 3 года 11 месяцев

Наличие запрета:

Сообщений: 10847

Откуда: Free-Tor.com

Отдача: не определено

Загрузка: не определено

Нажми

Создавать темы 31-Янв-2019 12:10

[Цитировать]

Информация о фильме- Название: Хроники хищных городов
Оригинальное название: Mortal Engines
Год выхода: 2018
Жанр: Фантастика, фэнтези, боевик, триллер, приключения
Режиссер: Кристиан Риверс
В ролях: Гера Хилмарсдоттир, Роберт Шиэн, Хьюго Уивинг, Джихе, Ронан Рафтери, Лейла Джордж, Патрик Мэлахайд, Стивен Лэнг, Колин Сэлмон, Марк Митчинсон, Меник Гунератне, Реге Пейдж, Фрэнки Адамс, Лейфур Сигурдарсон, Кан Уэст, Эндрю Лииз, Ки Чан, Сара Пирс, Марк Хэдлоу, Карен Писториус, Поппи Маклеод, Джоэл Тобек, Йосон Ан- -О фильме: Прошли тысячелетия после того, как мир настиг апокалипсис. Человечество адаптировалось и теперь живет по новым правилам. Гигантские движущиеся мегаполисы рассекают пустоши и поглощают маленькие города ради ресурсов. Том Нэтсуорти из нижнего уровня великого Лондона оказывается в смертельной опасности, когда на его пути появляется скрывающаяся от закона бунтарка Эстер Шоу. Они не должны были встретиться, но им суждено изменить будущее.-Страна: Новая Зеландия, США
Студия: Media Rights Capital (MRC), Scholastic Productions, Silvertongue Films
Продолжительность: 02:08:21
Перевод: Дублированный | iTunes-Качество: WEB-DL 1080p
Видео: MPEG-4 AVC, 1916x796, 4502 Kbit/s, 23.976 fps
Звук:
Аудио: 48 kHz, AC3, 5.1, 384 Kbps | iTunes | RUS | -

Скриншоты

--
-

MI

-General
Unique ID : 57280418121125949252559265572619266072 (0x2B17CEA7D8F682603D5D133C11A3A818)
Complete name : D:Video111Mortal.Engines.2018.WEB-DL.1080p.seleZen.mkv
Format : Matroska
Format version : Version 4
File size : 4.38 GiB
Duration : 2 h 8 min
Overall bit rate : 4 888 kb/s
Movie name : Mortal Engines 2018 from селезень
Encoded date : UTC 2019-01-30 19:58:32
Writing application : mkvmerge v29.0.0 ('Like It Or Not') 64-bit
Writing library : libebml v1.3.6 + libmatroska v1.4.9
Video
ID : 1
Format : AVC
Format/Info : Advanced Video Codec
Format profile : [email protected]
Format settings : CABAC / 5 Ref Frames
Format settings, CABAC : Yes
Format settings, ReFrames : 5 frames
Codec ID : V_MPEG4/ISO/AVC
Duration : 2 h 8 min
Bit rate : 4 502 kb/s
Width : 1 916 pixels
Height : 796 pixels
Display aspect ratio : 2.40:1
Frame rate mode : Constant
Frame rate : 23.976 (23976/1000) FPS
Color space : YUV
Chroma subsampling : 4:2:0
Bit depth : 8 bits
Scan type : Progressive
Bits/(Pixel*Frame) : 0.123
Stream size : 4.04 GiB (92%)
Language : English
Default : Yes
Forced : No
Color range : Limited
Color primaries : BT.709
Transfer characteristics : BT.709
Matrix coefficients : BT.709
Audio
ID : 2
Format : AC-3
Format/Info : Audio Coding 3
Commercial name : Dolby Digital
Codec ID : A_AC3
Duration : 2 h 8 min
Bit rate mode : Constant
Bit rate : 384 kb/s
Channel(s) : 6 channels
Channel layout : L R C LFE Ls Rs
Sampling rate : 48.0 kHz
Frame rate : 31.250 FPS (1536 SPF)
Bit depth : 16 bits
Compression mode : Lossy
Stream size : 353 MiB (8%)
Title : iTunes
Language : Russian
Service kind : Complete Main
Default : Yes
Forced : Yes
Menu
00:00:00.000 : en:1
00:09:25.398 : en:2
00:16:14.306 : en:3
00:24:21.625 : en:4
00:31:25.589 : en:5
00:35:54.065 : en:6
00:41:28.816 : en:7
00:44:54.812 : en:8
00:50:17.801 : en:9
00:54:22.170 : en:10
01:00:52.392 : en:11
01:07:13.064 : en:12
01:11:13.846 : en:13
01:17:38.730 : en:14
01:25:26.614 : en:15
01:33:31.389 : en:16
01:39:29.538 : en:17
01:47:59.255 : en:18
01:52:12.548 : en:19
01:58:34.513 : en:20-
-Релиз от: -
[free-tor.info].t19182.torrent 
Торрент: Зарегистрирован [ 2019-01-31 12:10 ] · 1522EC4689578BDC855ED047E1FCF754E60A3993

Скачать .torrent

Скачать .torrent

7 KB

Статус: проверено
.torrent скачан: 63 раз
Размер: 4,38 GB
Правила
Demuirg23(01-Фев-19), 4udaki(01-Фев-19), Андрей1964(03-Фев-19)
Похожие темы

[Профиль] [ЛС]
Показать сообщения:    
Ответить на тему

Текущее время: 17-Июл 03:08

Часовой пояс: UTC + 4



Вы не можете начинать темы
Вы не можете отвечать на сообщения
Вы не можете редактировать свои сообщения
Вы не можете удалять свои сообщения
Вы не можете голосовать в опросах
Вы не можете прикреплять файлы к сообщениям
Вы можете скачивать файлы
Анализ веб сайтов Яндекс.Метрика