Пирсинг / Piercing (Николас Песке) [2018, ужасы, триллер, WEB-DL 1080p от Tapochek | iTunes]

Ответить на тему
Статистика раздачи [Обновить пиров]
Размер:  3,19 GB   |    Зарегистрирован:  5 месяцев 13 дней   |    .torrent скачан:  7 раз
Сидов:  572  [  0 KB/s  ]   Личеров:  65  [  0 KB/s  ]   Подробная статистика пиров
 
   
 
 
Автор Сообщение

Skorp10n ®

Оффлайн

 Активный раздающий 1 Активный раздающий 2
 Активный релизер 1000 Активный релизер 1500 Активный релизер 2000 Активный релизер 250 Активный релизер 3000 Активный релизер 500 Активный релизер 5000 Активный релизер Фильмов (1000) Активный релизер Фильмов (300) Активный релизер Фильмов (600) Активный Форумчанин 1 Активный Форумчанин 2 Активный Форумчанин 3 Активный Форумчанин 4 Друг трекера Карма 1000 Карма 1500 Карма 3000 Карма 500 Меценат Ни дня без новостей Орденосец 1 степени Орденосец 2 степени Орденосец 3 степени Почетный орденосец Почетный репортер С Новым 2016 Годом! С Новым 2017 Годом! С Новым 2018 Годом! С Новым 2019 Годом! Супер Мега Контер Квейк ТОП-10

Пол: Мужской

Стаж: 3 года 11 месяцев

Наличие запрета:

Сообщений: 10847

Откуда: Free-Tor.com

Отдача: не определено

Загрузка: не определено

Нажми

Создавать темы 02-Фев-2019 10:06

[Цитировать]

Информация о фильме- Название: Пирсинг
Оригинальное название: Piercing
Год выхода: 2018
Жанр: ужасы, триллер
Режиссер: Николас Песке
В ролях: Кристофер Эбботт, Миа Васиковска, Лайа Коста, Оливия Бонд, Мария Диззия, Марин Айрлэнд, Дакота Лустик, Уенделл Пирс-О фильме:-Рид — симпатичный парень, любящий муж и отец. Но в тихом омуте… Уже много лет он одержим желанием убить кого-нибудь ножом для колки льда. Когда наваждение становится нестерпимым, он решается прикончить проститутку. План преступления разработан до мельчайших деталей. Рид не предусмотрел только, что по его вызову приедет она, Джеки, работающая в стиле садо-мазо, сама любительница холодного оружия, немного чокнутая, но романтичная. Они встречаются… и между ними начинается смертельная игра в кошки-мышки, игра, где между любовью и ненавистью 50 миллиметров стали.--Страна: США
Продолжительность: 01:21:15
Перевод: Профессиональный (полное дублирование)-Релиз от: Tapochek-Файл-Кодек: AVC
Качество: WEB-DL 1080p
Видео: AVC, 5236 Кбит/сек, 1920x1080, 24.000 кадр/сек
Звук: AC-3, 384 Кбит/сек, 6 каналов, 48.0 kHz - Russian-Семпл-

MI

-General
Unique ID : 200493939483792311550988351567381837180 (0x96D5BA697AECFC4B930328ED3C36B57C)
Complete name : C:DownloadsPiercing.2018.D.WEB-DL.1080p.mkv
Format : Matroska
Format version : Version 4
File size : 3.19 GiB
Duration : 1 h 21 min
Overall bit rate : 5 622 kb/s
Encoded date : UTC 2019-02-01 08:39:02
Writing application : mkvmerge v8.3.0 ('Over the Horizon') 64bit
Writing library : libebml v1.3.1 + libmatroska v1.4.2
Video
ID : 2
Format : AVC
Format/Info : Advanced Video Codec
Format profile : [email protected]
Format settings : CABAC / 4 Ref Frames
Format settings, CABAC : Yes
Format settings, ReFrames : 4 frames
Codec ID : V_MPEG4/ISO/AVC
Duration : 1 h 21 min
Bit rate : 5 236 kb/s
Width : 1 920 pixels
Height : 1 080 pixels
Display aspect ratio : 16:9
Frame rate mode : Constant
Frame rate : 24.000 FPS
Color space : YUV
Chroma subsampling : 4:2:0
Bit depth : 8 bits
Scan type : Progressive
Bits/(Pixel*Frame) : 0.105
Stream size : 2.97 GiB (93%)
Language : English
Default : Yes
Forced : No
Color range : Limited
Color primaries : BT.709
Transfer characteristics : BT.709
Matrix coefficients : BT.709
Audio
ID : 1
Format : AC-3
Format/Info : Audio Coding 3
Commercial name : Dolby Digital
Codec ID : A_AC3
Duration : 1 h 21 min
Bit rate mode : Constant
Bit rate : 384 kb/s
Channel(s) : 6 channels
Channel layout : L R C LFE Ls Rs
Sampling rate : 48.0 kHz
Frame rate : 31.250 FPS (1536 SPF)
Bit depth : 16 bits
Compression mode : Lossy
Stream size : 223 MiB (7%)
Language : Russian
Service kind : Complete Main
Default : Yes
Forced : No-
-

Скриншоты

--
-
[free-tor.info].t19239.torrent 
Торрент: Зарегистрирован [ 2019-02-02 10:06 ] · CE7AD58F32E3736801B40E366C5832FCAA807D09

Скачать .torrent

Скачать .torrent

17 KB

Статус: проверено
.torrent скачан: 7 раз
Размер: 3,19 GB
Правила
Похожие темы

[Профиль] [ЛС]
Показать сообщения:    
Ответить на тему

Текущее время: 16-Июл 04:41

Часовой пояс: UTC + 4



Вы не можете начинать темы
Вы не можете отвечать на сообщения
Вы не можете редактировать свои сообщения
Вы не можете удалять свои сообщения
Вы не можете голосовать в опросах
Вы не можете прикреплять файлы к сообщениям
Вы можете скачивать файлы
Анализ веб сайтов Яндекс.Метрика