Под Сильвер-Лэйк / Under the Silver Lake (Дэвид Роберт Митчелл) [2018, триллер, драма, комедия, криминал, детектив, фильм-нуар, BDRip 1080p от селезень | iTunes]

Ответить на тему
Статистика раздачи [Обновить пиров]
Размер:  12,55 GB   |    Зарегистрирован:  5 месяцев 11 дней   |    .torrent скачан:  13 раз
Сидов:  380  [  0 KB/s  ]   Личеров:  13  [  0 KB/s  ]   Подробная статистика пиров
 
   
 
 
Автор Сообщение

Skorp10n ®

Оффлайн

 Активный раздающий 1 Активный раздающий 2
 Активный релизер 1000 Активный релизер 1500 Активный релизер 2000 Активный релизер 250 Активный релизер 3000 Активный релизер 500 Активный релизер 5000 Активный релизер Фильмов (1000) Активный релизер Фильмов (300) Активный релизер Фильмов (600) Активный Форумчанин 1 Активный Форумчанин 2 Активный Форумчанин 3 Активный Форумчанин 4 Друг трекера Карма 1000 Карма 1500 Карма 3000 Карма 500 Меценат Ни дня без новостей Орденосец 1 степени Орденосец 2 степени Орденосец 3 степени Почетный орденосец Почетный репортер С Новым 2016 Годом! С Новым 2017 Годом! С Новым 2018 Годом! С Новым 2019 Годом! Супер Мега Контер Квейк ТОП-10

Пол: Мужской

Стаж: 3 года 11 месяцев

Наличие запрета:

Сообщений: 10847

Откуда: Free-Tor.com

Отдача: не определено

Загрузка: не определено

Нажми

Создавать темы 04-Фев-2019 11:58

[Цитировать]

Информация о фильме- Название: Под Сильвер-Лэйк
Оригинальное название: Under the Silver Lake
Год выхода: 2018
Жанр: Триллер, драма, комедия, криминал, детектив, фильм-нуар
Режиссер: Дэвид Роберт Митчелл
В ролях: Эндрю Гарфилд, Венди Ванден Хювел, Дебора Геффнер, Райли Кио, Рики Линдхоум, Джаннин Кота, Крис Гэнн, Калли Эрнандес, Джессика Макинсон, Риз Хартвиг- -О фильме: Сэм знакомится с девушкой, которая на следующий день исчезает при загадочных обстоятельствах. Теперь он одержим идеей непременно отыскать её, и пытается обнаружить хоть какие-то зацепки, во всем, что он видит и слышит. Неожиданно он находит что-то вроде кода или цепочки тайных посланий. Открывая каждое последующее сообщение, для него всё очевиднее становится, что он оказался внутри глобального заговора-Страна: США
Студия: Vendian Entertainment, Stay Gold Features, Good Fear Film + Management
Продолжительность: 02:19:22
Перевод: Дублированный | iTunes-Качество: BDRip 1080p
Видео: MPEG-4 AVC, 1920x802, 11 Mbit/s, 23.976 fps
Звук:
Аудио #01: 48 kHz, AC3, 5.1, 384 Kbps | iTunes | RUS |
Аудио #02: 48 kHz, DTS, 5.1, 1510 Kbps | Оригинал | ENG |
Субтитры: Русские (Full), английские-

Скриншоты

--
-

MI

-General
Unique ID : 123428776315894330071542905878312330729 (0x5CDB848370241B40939DB72D344325E9)
Complete name : D:Video111Under.the.Silver.Lake.2018.BDRip.1080p.seleZen.mkv
Format : Matroska
Format version : Version 4
File size : 12.6 GiB
Duration : 2 h 19 min
Overall bit rate : 12.9 Mb/s
Movie name : Under the Silver Lake 2018 from селезень
Encoded date : UTC 2019-02-03 14:03:31
Writing application : mkvmerge v29.0.0 ('Like It Or Not') 64-bit
Writing library : libebml v1.3.6 + libmatroska v1.4.9
Video
ID : 1
Format : AVC
Format/Info : Advanced Video Codec
Format profile : [email protected]
Format settings : CABAC / 5 Ref Frames
Format settings, CABAC : Yes
Format settings, ReFrames : 5 frames
Codec ID : V_MPEG4/ISO/AVC
Duration : 2 h 19 min
Bit rate : 11.0 Mb/s
Width : 1 920 pixels
Height : 802 pixels
Display aspect ratio : 2.40:1
Frame rate mode : Constant
Frame rate : 23.976 (24000/1001) FPS
Color space : YUV
Chroma subsampling : 4:2:0
Bit depth : 8 bits
Scan type : Progressive
Bits/(Pixel*Frame) : 0.298
Stream size : 10.7 GiB (85%)
Title : LoRD
Writing library : x264 core 157 r2935 LoRD
Encoding settings : cabac=1 / ref=5 / deblock=1:-3:-3 / analyse=0x3:0x133 / me=umh / subme=10 / psy=1 / psy_rd=1.00:0.00 / mixed_ref=1 / me_range=32 / chroma_me=1 / trellis=2 / 8x8dct=1 / cqm=0 / deadzone=21,11 / fast_pskip=0 / chroma_qp_offset=-2 / threads=12 / lookahead_threads=2 / sliced_threads=0 / nr=0 / decimate=0 / interlaced=0 / bluray_compat=0 / constrained_intra=0 / bframes=8 / b_pyramid=2 / b_adapt=2 / b_bias=0 / direct=3 / weightb=1 / open_gop=0 / weightp=2 / keyint=250 / keyint_min=23 / scenecut=40 / intra_refresh=0 / rc_lookahead=60 / rc=2pass / mbtree=0 / bitrate=11000 / ratetol=1.0 / qcomp=0.60 / qpmin=0 / qpmax=69 / qpstep=4 / cplxblur=20.0 / qblur=0.5 / vbv_maxrate=50000 / vbv_bufsize=62500 / nal_hrd=none / filler=0 / ip_ratio=1.30 / pb_ratio=1.20 / aq=3:0.80
Language : English
Default : Yes
Forced : Yes
Audio #1
ID : 2
Format : AC-3
Format/Info : Audio Coding 3
Commercial name : Dolby Digital
Codec ID : A_AC3
Duration : 2 h 19 min
Bit rate mode : Constant
Bit rate : 384 kb/s
Channel(s) : 6 channels
Channel layout : L R C LFE Ls Rs
Sampling rate : 48.0 kHz
Frame rate : 31.250 FPS (1536 SPF)
Bit depth : 16 bits
Compression mode : Lossy
Stream size : 383 MiB (3%)
Title : iTunes
Language : Russian
Service kind : Complete Main
Default : Yes
Forced : Yes
Audio #2
ID : 3
Format : DTS
Format/Info : Digital Theater Systems
Codec ID : A_DTS
Duration : 2 h 19 min
Bit rate mode : Constant
Bit rate : 1 509 kb/s
Channel(s) : 6 channels
Channel layout : C L R Ls Rs LFE
Sampling rate : 48.0 kHz
Frame rate : 93.750 FPS (512 SPF)
Bit depth : 24 bits
Compression mode : Lossy
Stream size : 1.47 GiB (12%)
Title : Original
Language : English
Default : No
Forced : No
Text #1
ID : 4
Format : UTF-8
Codec ID : S_TEXT/UTF8
Codec ID/Info : UTF-8 Plain Text
Duration : 2 h 15 min
Bit rate : 66 b/s
Count of elements : 1269
Stream size : 65.3 KiB (0%)
Title : Full
Language : Russian
Default : No
Forced : No
Text #2
ID : 5
Format : UTF-8
Codec ID : S_TEXT/UTF8
Codec ID/Info : UTF-8 Plain Text
Duration : 2 h 14 min
Bit rate : 43 b/s
Count of elements : 1359
Stream size : 43.4 KiB (0%)
Title : Full
Language : English
Default : No
Forced : No
Menu
00:00:00.000 : en:Chapter 01
00:09:17.015 : en:Chapter 02
00:18:07.169 : en:Chapter 03
00:28:09.897 : en:Chapter 04
00:37:20.613 : en:Chapter 05
00:44:13.818 : en:Chapter 06
00:54:04.158 : en:Chapter 07
01:04:16.102 : en:Chapter 08
01:13:33.242 : en:Chapter 09
01:22:21.854 : en:Chapter 10
01:29:52.846 : en:Chapter 11
01:36:43.798 : en:Chapter 12
01:43:59.859 : en:Chapter 13
01:54:45.712 : en:Chapter 14
02:07:37.316 : en:Chapter 15-
-Релиз от: -
[free-tor.info].t19262.torrent 
Торрент: Зарегистрирован [ 2019-02-04 11:58 ] · CD2C423EE146DB653C76A950F6E53779843C2BE4

Скачать .torrent

Скачать .torrent

17 KB

Статус: проверено
.torrent скачан: 13 раз
Размер: 12,55 GB
Правила
Похожие темы

[Профиль] [ЛС]
Показать сообщения:    
Ответить на тему

Текущее время: 16-Июл 04:58

Часовой пояс: UTC + 4



Вы не можете начинать темы
Вы не можете отвечать на сообщения
Вы не можете редактировать свои сообщения
Вы не можете удалять свои сообщения
Вы не можете голосовать в опросах
Вы не можете прикреплять файлы к сообщениям
Вы можете скачивать файлы
Анализ веб сайтов Яндекс.Метрика