Ловушка времени / Time Trap (Марк Деннис, Бен Фостер) [2017, фантастика, боевик, приключения, HDRip-AVC от OlLanDGroup | D, P | iTunes]

Ответить на тему
Статистика раздачи [Обновить пиров]
Размер:  1,77 GB   |    Зарегистрирован:  5 месяцев 10 дней   |    .torrent скачан:  31 раз
Сидов:  143  [  0 KB/s  ]   Личеров:  18  [  0 KB/s  ]   Подробная статистика пиров
 
   
 
 
Автор Сообщение

Skorp10n ®

Оффлайн

 Активный раздающий 1 Активный раздающий 2
 Активный релизер 1000 Активный релизер 1500 Активный релизер 2000 Активный релизер 250 Активный релизер 3000 Активный релизер 500 Активный релизер 5000 Активный релизер Фильмов (1000) Активный релизер Фильмов (300) Активный релизер Фильмов (600) Активный Форумчанин 1 Активный Форумчанин 2 Активный Форумчанин 3 Активный Форумчанин 4 Друг трекера Карма 1000 Карма 1500 Карма 3000 Карма 500 Меценат Ни дня без новостей Орденосец 1 степени Орденосец 2 степени Орденосец 3 степени Почетный орденосец Почетный репортер С Новым 2016 Годом! С Новым 2017 Годом! С Новым 2018 Годом! С Новым 2019 Годом! Супер Мега Контер Квейк ТОП-10

Пол: Мужской

Стаж: 3 года 11 месяцев

Наличие запрета:

Сообщений: 10847

Откуда: Free-Tor.com

Отдача: не определено

Загрузка: не определено

Нажми

Создавать темы 05-Фев-2019 10:59

[Цитировать]

Ловушка времени / Time Trap
«Escape To The Future!»
- Год выпуска: 2017
Страна: США
Производство: Pad Thai Pictures, Filmsmith Production & Management, Rising Phoenix
Жанр: Фантастика, боевик, приключения-Режиссёр: Марк Деннис, Бен Фостер
В ролях: Эндрю Уилсон, Макс Райт, Рич Скидмор, Рейли МакКлендон, Елена Диаз, Гопал Бидари, Кэссиди Гиффорд, Эстелла Перез, Крис Старджон, Ганс Марреро, Брианна Хоуи, Оливия Драгусевич-Перевод: Дублированный | [iTunes], Профессиональный (многоголосый, закадровый) | [HDRezka Studio]
Субтитры: Русские (форс.), Английские (полные)
Реклама: Отсутствует-Описание: Группа студентов отправляются в пещеры Техаса, чтобы найти своего любимого преподавателя по археологии, пропавшего без вести некоторое время назад. Ребята уверены, что он нуждается в помощи, а раз спасатели не смогут оперативно выполнить эту работу, то у них не остается выбора. Студенты готовы рисковать собственными жизнями ради спасения своего преподавателя. Кроме того, их интересует его необычная теория, которая гласит, что в этих местах может находиться истинный источник молодости.- -Качество: HDRip-AVC | BDRip 1080p | Time Trap 2017 1080p BluRay DTS x264-PFa
Продолжительность: 01:27:32-Формат: MKV
Видео кодек: MPEG-4 AVC
Аудио кодек: AC3
Видео: 1024x436 (2.35:1), 23,976 fps, x264 ~1 865 kbps avg, 0.174 bit/pixel
Аудио #1: 48 kHz, AC3 Dolby Digital, 3/2 (L,C,R,l,r) + LFE ch, ~384.00 kbps avg | RUS (iTunes)
Аудио #2: 48 kHz, AC3 Dolby Digital, 2 (L,R) ch, ~192.00 kbps avg | RUS (HDRezka Studio)
Аудио #3: 48 kHz, AC3 Dolby Digital, 3/2 (L,C,R,l,r) + LFE ch, ~448.00 kbps avg | ENG-Дата премьеры (мир): 19 мая 2017
Дата премьеры (РФ):
-Релиз от: -

MediaInfo

-Общее
Уникальный идентификатор : 253458164582275216485627869357167567465 (0xBEAE44525E548471C7568FAAE9C76269)
Полное имя : F:OlLanDGroupTime.Trap.2017.BDRip(AVC).OlLanDGroup.mkv
Формат : Matroska
Версия формата : Version 4 / Version 2
Размер файла : 1,77 Гбайт
Продолжительность : 1 ч. 27 м.
Общий поток : 2891 Кбит/сек
Название фильма : Time.Trap.2017 #TorpedoUK#
Дата кодирования : UTC 2019-02-04 04:47:04
Программа кодирования : mkvmerge v29.0.0 ('Like It Or Not') 64-bit
Библиотека кодирования : libebml v1.3.6 + libmatroska v1.4.9
Видео
Идентификатор : 1
Формат : AVC
Формат/Информация : Advanced Video Codec
Профиль формата : [email protected]
Параметр CABAC формата : Да
Параметр ReFrames формата : 10 кадров
Идентификатор кодека : V_MPEG4/ISO/AVC
Продолжительность : 1 ч. 27 м.
Битрейт : 1865 Кбит/сек
Ширина : 1024 пикселя
Высота : 436 пикселей
Соотношение сторон : 2,35:1
Режим частоты кадров : Постоянный
Частота кадров : 23,976 (24000/1001) кадра/сек
Цветовое пространство : YUV
Субдискретизация насыщенности : 4:2:0
Битовая глубина : 8 бит
Тип развёртки : Прогрессивная
Бит/(Пиксели*Кадры) : 0.174
Размер потока : 1,14 Гбайт (64%)
Библиотека кодирования : x264 core 146 r2538 121396c
Настройки программы : cabac=1 / ref=10 / deblock=1:-3:-3 / analyse=0x3:0x113 / me=umh / subme=11 / psy=1 / psy_rd=0.98:0.04 / mixed_ref=1 / me_range=48 / chroma_me=1 / trellis=2 / 8x8dct=1 / cqm=0 / deadzone=21,11 / fast_pskip=1 / chroma_qp_offset=-3 / threads=6 / lookahead_threads=1 / sliced_threads=0 / nr=0 / decimate=1 / interlaced=0 / bluray_compat=0 / constrained_intra=0 / bframes=10 / b_pyramid=2 / b_adapt=2 / b_bias=0 / direct=3 / weightb=1 / open_gop=0 / weightp=2 / keyint=240 / keyint_min=23 / scenecut=40 / intra_refresh=0 / rc_lookahead=40 / rc=2pass / mbtree=0 / bitrate=1865 / ratetol=1.0 / qcomp=0.60 / qpmin=0 / qpmax=69 / qpstep=4 / cplxblur=20.0 / qblur=0.5 / vbv_maxrate=50000 / vbv_bufsize=62500 / nal_hrd=none / filler=0 / ip_ratio=1.40 / pb_ratio=1.30 / aq=1:1.00
Язык : English
Default : Да
Forced : Нет
Аудио #1
Идентификатор : 2
Формат : AC-3
Формат/Информация : Audio Coding 3
Расширение режима : CM (complete main)
Параметр Endianness формата : Big
Идентификатор кодека : A_AC3
Продолжительность : 1 ч. 27 м.
Вид битрейта : Постоянный
Битрейт : 384 Кбит/сек
Каналы : 6 каналов
Расположение каналов : Front: L C R, Side: L R, LFE
Частота : 48,0 КГц
Частота кадров : 31,250 кадров/сек (1536 spf)
Битовая глубина : 16 бит
Метод сжатия : С потерями
Размер потока : 240 Мбайт (13%)
Заголовок : DUB [iTunes]
Язык : Russian
Default : Да
Forced : Нет
Аудио #2
Идентификатор : 3
Формат : AC-3
Формат/Информация : Audio Coding 3
Расширение режима : CM (complete main)
Параметр Endianness формата : Big
Идентификатор кодека : A_AC3
Продолжительность : 1 ч. 27 м.
Вид битрейта : Постоянный
Битрейт : 192 Кбит/сек
Каналы : 2 канала
Расположение каналов : Front: L R
Частота : 48,0 КГц
Частота кадров : 31,250 кадров/сек (1536 spf)
Битовая глубина : 16 бит
Метод сжатия : С потерями
Размер потока : 120 Мбайт (7%)
Заголовок : MVO [HDRezka Studio]
Язык : Russian
Default : Нет
Forced : Нет
Аудио #3
Идентификатор : 4
Формат : AC-3
Формат/Информация : Audio Coding 3
Расширение режима : CM (complete main)
Параметр Endianness формата : Big
Идентификатор кодека : A_AC3
Продолжительность : 1 ч. 27 м.
Вид битрейта : Постоянный
Битрейт : 448 Кбит/сек
Каналы : 6 каналов
Расположение каналов : Front: L C R, Side: L R, LFE
Частота : 48,0 КГц
Частота кадров : 31,250 кадров/сек (1536 spf)
Битовая глубина : 16 бит
Метод сжатия : С потерями
Размер потока : 281 Мбайт (15%)
Заголовок : [Original]
Язык : English
Default : Нет
Forced : Нет
Текст #1
Идентификатор : 5
Формат : UTF-8
Идентификатор кодека : S_TEXT/UTF8
Идентификатор кодека/Информация : UTF-8 Plain Text
Продолжительность : 1 ч. 24 м.
Битрейт : 0 бит/сек
Count of elements : 12
Размер потока : 463 байт (0%)
Заголовок : Forced v.1
Язык : Russian
Default : Да
Forced : Нет
Текст #2
Идентификатор : 6
Формат : UTF-8
Идентификатор кодека : S_TEXT/UTF8
Идентификатор кодека/Информация : UTF-8 Plain Text
Продолжительность : 1 ч. 24 м.
Битрейт : 1 бит/сек
Count of elements : 18
Размер потока : 750 байт (0%)
Заголовок : Forced v.2
Язык : Russian
Default : Нет
Forced : Нет
Текст #3
Идентификатор : 7
Формат : UTF-8
Идентификатор кодека : S_TEXT/UTF8
Идентификатор кодека/Информация : UTF-8 Plain Text
Продолжительность : 1 ч. 20 м.
Битрейт : 61 бит/сек
Count of elements : 1306
Размер потока : 36,4 Кбайт (0%)
Заголовок : Full
Язык : English
Default : Нет
Forced : Нет
Меню
00:00:00.000 : en:Глава 1
00:06:51.745 : en:Глава 2
00:15:52.035 : en:Глава 3
00:21:55.148 : en:Глава 4
00:28:00.304 : en:Глава 5
00:39:51.640 : en:Глава 6
00:48:16.686 : en:Глава 7
01:08:36.197 : en:Глава 8
01:13:56.809 : en:Глава 9
01:19:33.437 : en:Глава 10-
-

Скриншоты

--
-
[free-tor.info].t19288.torrent 
Торрент: Зарегистрирован [ 2019-02-05 10:59 ] · E542BE1B0AC04C997C9C862210EAA6D6BE18CDF0

Скачать .torrent

Скачать .torrent

19 KB

Статус: проверено
.torrent скачан: 31 раз
Размер: 1,77 GB
Правила
Похожие темы

[Профиль] [ЛС]
Показать сообщения:    
Ответить на тему

Текущее время: 16-Июл 04:56

Часовой пояс: UTC + 4



Вы не можете начинать темы
Вы не можете отвечать на сообщения
Вы не можете редактировать свои сообщения
Вы не можете удалять свои сообщения
Вы не можете голосовать в опросах
Вы не можете прикреплять файлы к сообщениям
Вы можете скачивать файлы
Анализ веб сайтов Яндекс.Метрика