Ничего хорошего в отеле «Эль рояль» / Bad Times at the El Royale (Дрю Годдард) [2018, триллер, детектив, BDRip 1080p от селезень | Лицензия]

Ответить на тему
Статистика раздачи [Обновить пиров]
Размер:  12,59 GB   |    Зарегистрирован:  5 месяцев 9 дней   |    .torrent скачан:  9 раз
Сидов:  421  [  0 KB/s  ]   Личеров:  51  [  0 KB/s  ]   Подробная статистика пиров
 
   
 
 
Автор Сообщение

Skorp10n ®

Оффлайн

 Активный раздающий 1 Активный раздающий 2
 Активный релизер 1000 Активный релизер 1500 Активный релизер 2000 Активный релизер 250 Активный релизер 3000 Активный релизер 500 Активный релизер 5000 Активный релизер Фильмов (1000) Активный релизер Фильмов (300) Активный релизер Фильмов (600) Активный Форумчанин 1 Активный Форумчанин 2 Активный Форумчанин 3 Активный Форумчанин 4 Друг трекера Карма 1000 Карма 1500 Карма 3000 Карма 500 Меценат Ни дня без новостей Орденосец 1 степени Орденосец 2 степени Орденосец 3 степени Почетный орденосец Почетный репортер С Новым 2016 Годом! С Новым 2017 Годом! С Новым 2018 Годом! С Новым 2019 Годом! Супер Мега Контер Квейк ТОП-10

Пол: Мужской

Стаж: 3 года 11 месяцев

Наличие запрета:

Сообщений: 10847

Откуда: Free-Tor.com

Отдача: не определено

Загрузка: не определено

Нажми

Создавать темы 07-Фев-2019 12:12

[Цитировать]

Информация о фильме- Название: Ничего хорошего в отеле «Эль рояль»
Оригинальное название: Bad Times at the El Royale
Год выхода: 2018
Жанр: Триллер, детектив
Режиссер: Дрю Годдард
В ролях: Крис Хемсворт, Дакота Джонсон, Джефф Бриджес, Синтия Эриво, Джон Хэмм, Кэйли Спэни, Льюис Пуллман, Ксавье Долан, Ник Офферман, Ши Уигхэм, Кэтрин Изабель, Мэнни Хасинто, Марк О`Брайэн, Чарльз Халфорд, Джим О`Хейр, Джерри Нэйрн, Альвина Аугуст, Джонатан Уайтселл, Софиа Локлин Херт- -О фильме: 1969 год. Группа разношерстных личностей останавливается на ночь в когда-то популярном отеле «Эль Рояль», расположенном на границе штатов Невада и Калифорния. В здании отеля собрались неприветливый священник, певица Дарлин, энергичный продавец пылесосов и подозрительная девушка с Юга. Вместе с ними ночь в отеле проводит молодой консьерж. Каждому из них есть что скрывать, и у каждого из них будет шанс искупить прошлые грехи. Но ситуация только осложняется, когда в «Эль Рояль» появляется зловещий, но обаятельный лидер культа, желающий получить свое.-Страна: США
Студия: 20th Century Fox Film Corporation
Продолжительность: 02:21:37
Перевод: Дублированный | Лицензия-Качество: BDRip 1080p
Видео: MPEG-4 AVC, 1920x804, 10 Mbit/s, 23.976 fps
Звук:
Аудио #01: 48 kHz, DTS, 5.1, 768 Kbps | Дублированный | RUS |
Аудио #02: 48 kHz, AC3, 5.1, 448 Kbps | Дублированный | UKR |
Аудио #03: 48 kHz, DTS, 5.1, 1510 Kbps | Оригинал | ENG |
Субтитры: Русские (Forced, full), украинские (Forced), английские-

Скриншоты

--
-

MI

-General
Unique ID : 270083470838989691792960812108928069142 (0xCB302F34A91347D6997B530174CD2E16)
Complete name : D:Video111Bad.Times.At.The.El.Royale.2018.BDRip.1080p.seleZen.mkv
Format : Matroska
Format version : Version 4
File size : 12.6 GiB
Duration : 2 h 21 min
Overall bit rate : 12.7 Mb/s
Movie name : Bad Times at the El Royale 2018 from селезень
Encoded date : UTC 2019-02-06 21:01:32
Writing application : mkvmerge v29.0.0 ('Like It Or Not') 64-bit
Writing library : libebml v1.3.6 + libmatroska v1.4.9
Video
ID : 1
Format : AVC
Format/Info : Advanced Video Codec
Format profile : [email protected]
Format settings : CABAC / 5 Ref Frames
Format settings, CABAC : Yes
Format settings, ReFrames : 5 frames
Codec ID : V_MPEG4/ISO/AVC
Duration : 2 h 21 min
Bit rate : 10 000 kb/s
Width : 1 920 pixels
Height : 804 pixels
Display aspect ratio : 2.40:1
Frame rate mode : Constant
Frame rate : 23.976 (24000/1001) FPS
Color space : YUV
Chroma subsampling : 4:2:0
Bit depth : 8 bits
Scan type : Progressive
Bits/(Pixel*Frame) : 0.270
Stream size : 9.89 GiB (79%)
Title : seleZen
Writing library : x264 core 148 r2705kMod 3f5ed56
Encoding settings : cabac=1 / ref=5 / deblock=1:-2:-2 / analyse=0x3:0x133 / me=umh / subme=11 / psy=1 / fade_compensate=0.00 / psy_rd=1.05:0.07 / mixed_ref=1 / me_range=48 / chroma_me=1 / trellis=2 / 8x8dct=1 / cqm=0 / deadzone=21,11 / fast_pskip=0 / chroma_qp_offset=-3 / threads=12 / lookahead_threads=2 / sliced_threads=0 / nr=0 / decimate=0 / interlaced=0 / bluray_compat=0 / constrained_intra=0 / fgo=0 / bframes=8 / b_pyramid=2 / b_adapt=2 / b_bias=0 / direct=3 / weightb=1 / open_gop=0 / weightp=2 / keyint=240 / keyint_min=23 / scenecut=40 / intra_refresh=0 / rc_lookahead=50 / rc=2pass / mbtree=0 / bitrate=10000 / ratetol=1.0 / qcomp=0.60 / qpmin=0 / qpmax=51 / qpstep=4 / cplxblur=20.0 / qblur=0.5 / vbv_maxrate=50000 / vbv_bufsize=62500 / nal_hrd=none / filler=0 / ip_ratio=1.40 / pb_ratio=1.30 / aq=3:0.80
Language : English
Default : Yes
Forced : No
Audio #1
ID : 2
Format : DTS
Format/Info : Digital Theater Systems
Codec ID : A_DTS
Duration : 2 h 21 min
Bit rate mode : Constant
Bit rate : 768 kb/s
Channel(s) : 6 channels
Channel layout : C L R Ls Rs LFE
Sampling rate : 48.0 kHz
Frame rate : 93.750 FPS (512 SPF)
Bit depth : 24 bits
Compression mode : Lossy
Stream size : 778 MiB (6%)
Title : Dub [License]
Language : Russian
Default : Yes
Forced : Yes
Audio #2
ID : 3
Format : AC-3
Format/Info : Audio Coding 3
Commercial name : Dolby Digital
Codec ID : A_AC3
Duration : 2 h 21 min
Bit rate mode : Constant
Bit rate : 448 kb/s
Channel(s) : 6 channels
Channel layout : L R C LFE Ls Rs
Sampling rate : 48.0 kHz
Frame rate : 31.250 FPS (1536 SPF)
Bit depth : 16 bits
Compression mode : Lossy
Stream size : 454 MiB (4%)
Title : Dub [License]
Language : Ukrainian
Service kind : Complete Main
Default : No
Forced : No
Audio #3
ID : 4
Format : DTS ES
Format/Info : Digital Theater Systems
Commercial name : DTS-ES Matrix
Codec ID : A_DTS
Duration : 2 h 21 min
Bit rate mode : Constant
Bit rate : 1 509 kb/s
Channel(s) : 6 channels
Channel(s)_Original : 7 channels
Channel layout : C L R Ls Rs Cb LFE
Sampling rate : 48.0 kHz
Frame rate : 93.750 FPS (512 SPF)
Bit depth : 24 bits
Compression mode : Lossy
Stream size : 1.49 GiB (12%)
Title : Original
Language : English
Default : No
Forced : No
Text #1
ID : 5
Format : UTF-8
Codec ID : S_TEXT/UTF8
Codec ID/Info : UTF-8 Plain Text
Duration : 2 h 17 min
Bit rate : 0 b/s
Count of elements : 11
Stream size : 329 Bytes (0%)
Title : Forced
Language : Russian
Default : Yes
Forced : Yes
Text #2
ID : 6
Format : UTF-8
Codec ID : S_TEXT/UTF8
Codec ID/Info : UTF-8 Plain Text
Duration : 2 h 17 min
Bit rate : 57 b/s
Count of elements : 1316
Stream size : 57.6 KiB (0%)
Title : Full
Language : Russian
Default : No
Forced : No
Text #3
ID : 7
Format : UTF-8
Codec ID : S_TEXT/UTF8
Codec ID/Info : UTF-8 Plain Text
Duration : 2 h 11 min
Bit rate : 0 b/s
Count of elements : 14
Stream size : 525 Bytes (0%)
Title : Forced
Language : Ukrainian
Default : No
Forced : No
Text #4
ID : 8
Format : UTF-8
Codec ID : S_TEXT/UTF8
Codec ID/Info : UTF-8 Plain Text
Duration : 2 h 13 min
Bit rate : 41 b/s
Count of elements : 1467
Stream size : 40.5 KiB (0%)
Title : Full
Language : English
Default : No
Forced : No
Text #5
ID : 9
Format : UTF-8
Codec ID : S_TEXT/UTF8
Codec ID/Info : UTF-8 Plain Text
Duration : 2 h 18 min
Bit rate : 45 b/s
Count of elements : 1711
Stream size : 46.2 KiB (0%)
Title : SDH
Language : English
Default : No
Forced : No
Menu
00:00:00.000 : en:Chapter 1
00:04:19.592 : en:Chapter 2
00:19:21.994 : en:Chapter 3
00:34:32.779 : en:Chapter 4
00:49:24.711 : en:Chapter 5
00:51:19.868 : en:Chapter 6
01:16:01.473 : en:Chapter 7
01:37:13.369 : en:Chapter 8
02:03:56.720 : en:Chapter 9
02:14:09.041 : en:Chapter 10
02:15:45.428 : en:Chapter 11-
-Релиз от: -
[free-tor.info].t19308.torrent 
Торрент: Зарегистрирован [ 2019-02-07 12:12 ] · FA0CFE61C56CC81C9B1E4243E661B489E501A49E

Скачать .torrent

Скачать .torrent

17 KB

Статус: проверено
.torrent скачан: 9 раз
Размер: 12,59 GB
Правила
Похожие темы

[Профиль] [ЛС]
Показать сообщения:    
Ответить на тему

Текущее время: 17-Июл 02:17

Часовой пояс: UTC + 4



Вы не можете начинать темы
Вы не можете отвечать на сообщения
Вы не можете редактировать свои сообщения
Вы не можете удалять свои сообщения
Вы не можете голосовать в опросах
Вы не можете прикреплять файлы к сообщениям
Вы можете скачивать файлы
Анализ веб сайтов Яндекс.Метрика