Тёмное зеркало / Look Away (Асаф Бернштейн) [2018, ужасы, триллер, WEB-DL 1080p | iTunes]

Ответить на тему
Статистика раздачи [Обновить пиров]
Размер:  3,86 GB   |    Зарегистрирован:  5 месяцев 5 дней   |    .torrent скачан:  13 раз
Сидов:  1309  [  0 KB/s  ]   Личеров:  96  [  0 KB/s  ]   Подробная статистика пиров
 
   
 
 
Автор Сообщение

Skorp10n ®

Оффлайн

 Активный раздающий 1 Активный раздающий 2
 Активный релизер 1000 Активный релизер 1500 Активный релизер 2000 Активный релизер 250 Активный релизер 3000 Активный релизер 500 Активный релизер 5000 Активный релизер Фильмов (1000) Активный релизер Фильмов (300) Активный релизер Фильмов (600) Активный Форумчанин 1 Активный Форумчанин 2 Активный Форумчанин 3 Активный Форумчанин 4 Друг трекера Карма 1000 Карма 1500 Карма 3000 Карма 500 Меценат Ни дня без новостей Орденосец 1 степени Орденосец 2 степени Орденосец 3 степени Почетный орденосец Почетный репортер С Новым 2016 Годом! С Новым 2017 Годом! С Новым 2018 Годом! С Новым 2019 Годом! Супер Мега Контер Квейк ТОП-10

Пол: Мужской

Стаж: 3 года 11 месяцев

Наличие запрета:

Сообщений: 10847

Откуда: Free-Tor.com

Отдача: не определено

Загрузка: не определено

Нажми

Создавать темы 11-Фев-2019 11:07

[Цитировать]

Информация о фильме- Название: Тёмное зеркало
Оригинальное название: Look Away
Год выхода: 2018
Жанр: ужасы, триллер
Режиссер: Асаф Бернштейн
В ролях: Индиа Айсли, Джейсон Айзекс, Мира Сорвино, Пенелопа Митчелл, Джон С. МакДональд, Харрисон Гилбертсон, Кристен Харрис, Кира Джонсон, Михал Бернштейн, Гленн Одер-Описание: У Марии нет друзей, и даже родители считают ее неудачницей. Свои секреты и обиды она доверяет только своему отражению в зеркале, демону-двойнику, который воплощает темную сторону ее души. Но как изменится жизнь Марии, если она выпустит своих демонов наружу и позволит им осуществить ее тайные желания?- -Страна: Канада
Продолжительность: 01:43:03
Перевод: профессиональный (дублированный) iTunes
Субтитры: русские, английские
Оригинальная аудиодорожка: английский-Файл-Качество: WEB-DL 1080p
Видео: AVC, 1916x800 (21:9), 23,976 fps, 4594 kbps
Аудио 1: AC3, 48,0 kHz, 6 ch, 384 kbps | iTunes
Аудио 2: AC3, 48,0 kHz, 6 ch, 384 kbps | English-***Релиз: Kylе-

Скриншоты

--
-

MediaInfo

-Общее
Полное имя : Look.Away.2018.WEB-DL.1080p.-Kyle.mkv
Формат : Matroska
Версия формата : Version 4
Размер файла : 3,86 Гбайт
Продолжительность : 1 ч. 43 м.
Общий поток : 5364 Кбит/сек
Дата кодирования : UTC 2019-02-09 15:36:08
Программа кодирования : mkvmerge v30.1.0 ('Forever And More') 64-bit
Библиотека кодирования : libebml v1.3.6 + libmatroska v1.4.9
Видео
Идентификатор : 1
Формат : AVC
Формат/Информация : Advanced Video Codec
Профиль формата : [email protected]
Настройки формата : CABAC / 5 Ref Frames
Параметр CABAC формата : Да
Параметр RefFrames формата : 5 кадров
Идентификатор кодека : V_MPEG4/ISO/AVC
Продолжительность : 1 ч. 43 м.
Битрейт : 4594 Кбит/сек
Ширина : 1916 пикселей
Высота : 800 пикселей
Соотношение сторон : 2,40:1
Режим частоты кадров : Постоянный
Частота кадров : 23,976 (24000/1001) кадра/сек
Цветовое пространство : YUV
Субдискретизация насыщенности : 4:2:0
Битовая глубина : 8 бит
Тип развёртки : Прогрессивная
Бит/(Пиксели*Кадры) : 0.125
Размер потока : 3,31 Гбайт (86%)
Заголовок : English
Язык : English
Default : Да
Forced : Нет
Цветовой диапазон : Limited
Основные цвета : BT.709
Характеристики трансфера : BT.709
Коэффициенты матрицы : BT.709
Аудио #1
Идентификатор : 2
Формат : AC-3
Формат/Информация : Audio Coding 3
Коммерческое название : Dolby Digital
Идентификатор кодека : A_AC3
Продолжительность : 1 ч. 43 м.
Вид битрейта : Постоянный
Битрейт : 384 Кбит/сек
Каналы : 6 каналов
Channel layout : L R C LFE Ls Rs
Частота : 48,0 КГц
Частота кадров : 31,250 кадров/сек (1536 SPF)
Битовая глубина : 16 бит
Метод сжатия : С потерями
Размер потока : 283 Мбайт (7%)
Заголовок : Russian
Язык : Russian
ServiceKind : Complete Main
Default : Да
Forced : Нет
Аудио #2
Идентификатор : 3
Формат : AC-3
Формат/Информация : Audio Coding 3
Коммерческое название : Dolby Digital
Идентификатор кодека : A_AC3
Продолжительность : 1 ч. 43 м.
Вид битрейта : Постоянный
Битрейт : 384 Кбит/сек
Каналы : 6 каналов
Channel layout : L R C LFE Ls Rs
Частота : 48,0 КГц
Частота кадров : 31,250 кадров/сек (1536 SPF)
Битовая глубина : 16 бит
Метод сжатия : С потерями
Размер потока : 283 Мбайт (7%)
Заголовок : English
Язык : English
ServiceKind : Complete Main
Default : Нет
Forced : Нет
Текст #1
Идентификатор : 4
Формат : UTF-8
Идентификатор кодека : S_TEXT/UTF8
Идентификатор кодека/Информация : UTF-8 Plain Text
Продолжительность : 1 ч. 35 м.
Битрейт : 46 бит/сек
ElementCount : 772
Размер потока : 32,8 Кбайт (0%)
Заголовок : Russian
Язык : Russian
Default : Нет
Forced : Нет
Текст #2
Идентификатор : 5
Формат : UTF-8
Идентификатор кодека : S_TEXT/UTF8
Идентификатор кодека/Информация : UTF-8 Plain Text
Продолжительность : 1 ч. 39 м.
Битрейт : 30 бит/сек
ElementCount : 802
Размер потока : 22,5 Кбайт (0%)
Заголовок : English
Язык : English
Default : Нет
Forced : Нет
Меню
00:00:00.000 : en:01
00:06:22.000 : en:02
00:13:26.000 : en:03
00:19:18.000 : en:04
00:25:52.000 : en:05
00:33:28.000 : en:06
00:38:59.000 : en:07
00:46:32.000 : en:08
00:52:25.000 : en:09
00:59:59.000 : en:10
01:06:33.000 : en:11
01:12:19.000 : en:12
01:21:01.000 : en:13
01:24:38.000 : en:14
01:31:11.000 : en:15
01:39:50.000 : en:16-
-
[free-tor.info].t19350.torrent 
Торрент: Зарегистрирован [ 2019-02-11 11:07 ] · F8C547C1B6D73F84EB092B8C1AA881A0FD1E2DC6

Скачать .torrent

Скачать .torrent

20 KB

Статус: проверено
.torrent скачан: 13 раз
Размер: 3,86 GB
Правила
Похожие темы

[Профиль] [ЛС]
Показать сообщения:    
Ответить на тему

Текущее время: 17-Июл 02:26

Часовой пояс: UTC + 4



Вы не можете начинать темы
Вы не можете отвечать на сообщения
Вы не можете редактировать свои сообщения
Вы не можете удалять свои сообщения
Вы не можете голосовать в опросах
Вы не можете прикреплять файлы к сообщениям
Вы можете скачивать файлы
Анализ веб сайтов Яндекс.Метрика