Последняя битва / Конец пути / Journey's End (Сол Дибб) [2017, драма, военный, BDRip 1080p | iTunes]

Ответить на тему
Статистика раздачи [Обновить пиров]
Размер:  7,75 GB   |    Зарегистрирован:  5 месяцев 5 дней   |    .torrent скачан:  29 раз
Сидов:  284  [  0 KB/s  ]   Личеров:  20  [  0 KB/s  ]   Подробная статистика пиров
 
   
 
 
Автор Сообщение

Skorp10n ®

Оффлайн

 Активный раздающий 1 Активный раздающий 2
 Активный релизер 1000 Активный релизер 1500 Активный релизер 2000 Активный релизер 250 Активный релизер 3000 Активный релизер 500 Активный релизер 5000 Активный релизер Фильмов (1000) Активный релизер Фильмов (300) Активный релизер Фильмов (600) Активный Форумчанин 1 Активный Форумчанин 2 Активный Форумчанин 3 Активный Форумчанин 4 Друг трекера Карма 1000 Карма 1500 Карма 3000 Карма 500 Меценат Ни дня без новостей Орденосец 1 степени Орденосец 2 степени Орденосец 3 степени Почетный орденосец Почетный репортер С Новым 2016 Годом! С Новым 2017 Годом! С Новым 2018 Годом! С Новым 2019 Годом! Супер Мега Контер Квейк ТОП-10

Пол: Мужской

Стаж: 3 года 11 месяцев

Наличие запрета:

Сообщений: 10847

Откуда: Free-Tor.com

Отдача: не определено

Загрузка: не определено

Нажми

Создавать темы 11-Фев-2019 16:48

[Цитировать]

Информация о фильме- Название: Последняя битва
Оригинальное название: Journey's End
Год выхода: 2017
Жанр: Драма, военный
Страна: Великобритания
Перевод: Дублированный | iTunes
Продолжительность: 01:47:44
Режиссер: Сол Дибб
В ролях: Сэм Клафлин, Эйса Баттерфилд, Пол Беттани, Стивен Грэм, Тоби Джонс, Том Стёрридж, Алаис Лоусон, Энди Гэтергуд, Джек Риддифорд, Адам Колборн и др.-О фильме: Весна 1918 года. Идёт уже четвертый год Первой мировой войны. Молодой и наивный лейтенант Рейли присоединяется на фронте к своему кумиру детства и другу семьи, капитану Стэнхоупу, не подозревая, как тот изменился за годы службы. Какого же было его удивление, когда вместо смелого и решительного человека, он увидел морально раздавленного мужчину, не способного повести за собой своих солдат. Лейтенант Рейли понимает, что для того, чтобы победить и выжить, необходимо взять контроль над ситуацией на себя. Получив известие о том, что войска противника уже близко, солдаты готовятся к неизбежному… К самой масштабной атаке врага за последнее время, намеченной на четверг, 21 марта 1918 года. Отсчёт пошёл…- -Файл-Качество: BDRip 1080p
Видео: MPEG-4 AVC, 1920x800, 9471 kbps, 24,000 fps
Звук#1: русский, AC3, 5.1 ch, 48 kHz, 384 kbps | iTunes
Звук#2: английский, AC3, 5.1 ch, 48 kHz, 448 kbps | оригинал
Субтитры: русские (форс., полные), английские (полные)-

MI

-General
Уникальный идентификатор : 183581930939073776009586548940615838960 (0x8A1C980390AAAB4E9ECA718B794DECF0)
Полное имя : E:TorrentJourneysEndBDRip1080p.mkv
Формат : Matroska
Версия формата : Version 4 / Version 2
Размер файла : 7.75 GiB
Продолжительность : 1 h 47 min
Общий поток : 10.3 Mb/s
Дата кодирования : UTC 2019-02-10 22:23:26
Программа кодирования : mkvmerge v9.5.0 ('Quiet Fire') 64bit
Библиотека кодирования : libebml v1.3.4 + libmatroska v1.4.5
Video
Идентификатор : 1
Формат : AVC
Формат/Информация : Advanced Video Codec
Профиль формата : [email protected]
Настройки формата : CABAC / 5 Ref Frames
Параметр CABAC формата : Yes
Параметр RefFrames формата : 5 frames
Идентификатор кодека : V_MPEG4/ISO/AVC
Продолжительность : 1 h 47 min
Битрейт : 9 471 kb/s
Ширина : 1 920 pixels
Высота : 800 pixels
Соотношение сторон : 2.40:1
Режим частоты кадров : Constant
Частота кадров : 24.000 FPS
Цветовое пространство : YUV
Субдискретизация насыщенности : 4:2:0
Битовая глубина : 8 bits
Тип развёртки : Progressive
Бит/(Пиксели*Кадры) : 0.257
Размер потока : 7.12 GiB (92%)
Библиотека кодирования : x264 core 157 r2935 545de2f
Настройки программы : cabac=1 / ref=5 / deblock=1:-2:-2 / analyse=0x3:0x113 / me=umh / subme=11 / psy=1 / psy_rd=1.00:0.00 / mixed_ref=1 / me_range=32 / chroma_me=1 / trellis=2 / 8x8dct=1 / cqm=0 / deadzone=21,11 / fast_pskip=0 / chroma_qp_offset=-2 / threads=9 / lookahead_threads=2 / sliced_threads=0 / nr=0 / decimate=0 / interlaced=0 / bluray_compat=0 / constrained_intra=0 / bframes=14 / b_pyramid=2 / b_adapt=2 / b_bias=0 / direct=3 / weightb=1 / open_gop=0 / weightp=2 / keyint=240 / keyint_min=24 / scenecut=40 / intra_refresh=0 / rc_lookahead=120 / rc=2pass / mbtree=0 / bitrate=9471 / ratetol=1.0 / qcomp=0.70 / qpmin=0 / qpmax=69 / qpstep=4 / cplxblur=20.0 / qblur=0.5 / vbv_maxrate=50000 / vbv_bufsize=62500 / nal_hrd=none / filler=0 / ip_ratio=1.40 / pb_ratio=1.30 / aq=2:0.80
Язык : English
Default : Yes
Forced : No
Цветовой диапазон : Limited
Основные цвета : BT.709
Характеристики трансфера : BT.709
Коэффициенты матрицы : BT.709
Audio #1
Идентификатор : 2
Формат : AC-3
Формат/Информация : Audio Coding 3
Идентификатор кодека : A_AC3
Продолжительность : 1 h 47 min
Вид битрейта : Constant
Битрейт : 384 kb/s
Каналы : 6 channels
Расположение каналов : Front: L C R, Side: L R, LFE
Частота : 48.0 kHz
Частота кадров : 31.250 FPS (1536 SPF)
Битовая глубина : 16 bits
Метод сжатия : Lossy
Размер потока : 296 MiB (4%)
Язык : Russian
Default : Yes
Forced : No
Audio #2
Идентификатор : 3
Формат : AC-3
Формат/Информация : Audio Coding 3
Идентификатор кодека : A_AC3
Продолжительность : 1 h 47 min
Вид битрейта : Constant
Битрейт : 448 kb/s
Каналы : 6 channels
Расположение каналов : Front: L C R, Side: L R, LFE
Частота : 48.0 kHz
Частота кадров : 31.250 FPS (1536 SPF)
Битовая глубина : 16 bits
Метод сжатия : Lossy
Размер потока : 345 MiB (4%)
Язык : English
Default : No
Forced : No
Text #1
Идентификатор : 4
Формат : UTF-8
Идентификатор кодека : S_TEXT/UTF8
Идентификатор кодека/Информация : UTF-8 Plain Text
Продолжительность : 1 h 40 min
Битрейт : 1 b/s
ElementCount : 23
Размер потока : 1.29 KiB (0%)
Заголовок : rusForced
Язык : Russian
Default : Yes
Forced : Yes
Text #2
Идентификатор : 5
Формат : UTF-8
Идентификатор кодека : S_TEXT/UTF8
Идентификатор кодека/Информация : UTF-8 Plain Text
Продолжительность : 1 h 40 min
Битрейт : 74 b/s
ElementCount : 1110
Размер потока : 55.0 KiB (0%)
Заголовок : rusFull
Язык : Russian
Default : No
Forced : No
Text #3
Идентификатор : 6
Формат : UTF-8
Идентификатор кодека : S_TEXT/UTF8
Идентификатор кодека/Информация : UTF-8 Plain Text
Продолжительность : 1 h 37 min
Битрейт : 46 b/s
ElementCount : 1097
Размер потока : 33.3 KiB (0%)
Заголовок : engFull
Язык : English
Default : No
Forced : No
Menu
00:00:00.000 : :Chapter 01
00:07:56.708 : :Chapter 02
00:16:49.250 : :Chapter 03
00:26:05.500 : :Chapter 04
00:34:21.125 : :Chapter 05
00:43:53.541 : :Chapter 06
00:51:38.208 : :Chapter 07
00:59:18.208 : :Chapter 08
01:08:51.041 : :Chapter 09
01:15:47.500 : :Chapter 10
01:24:45.250 : :Chapter 11
01:32:01.333 : :Chapter 12-
-

Скриншоты

--
-Релиз от: -
[free-tor.info].t19367.torrent 
Торрент: Зарегистрирован [ 2019-02-11 16:48 ] · 917AC7968624BE4D27BFA6AAE65B5C2519B80F5C

Скачать .torrent

Скачать .torrent

20 KB

Статус: проверено
.torrent скачан: 29 раз
Размер: 7,75 GB
Правила
Похожие темы

[Профиль] [ЛС]
Показать сообщения:    
Ответить на тему

Текущее время: 17-Июл 02:39

Часовой пояс: UTC + 4



Вы не можете начинать темы
Вы не можете отвечать на сообщения
Вы не можете редактировать свои сообщения
Вы не можете удалять свои сообщения
Вы не можете голосовать в опросах
Вы не можете прикреплять файлы к сообщениям
Вы можете скачивать файлы
Анализ веб сайтов Яндекс.Метрика